<?xml version="1.0" standalone="no"?>
<!DOCTYPE svg PUBLIC "-//W3C//DTD SVG 1.1//EN" "http://www.w3.org/Graphics/SVG/1.1/DTD/svg11.dtd" >
<svg xmlns="http://www.w3.org/2000/svg">
<metadata>Generated by IcoMoon</metadata>
<defs>
<font id="skinicon-fat" horiz-adv-x="1024">
<font-face units-per-em="1024" ascent="960" descent="-64" />
<missing-glyph horiz-adv-x="1024" />
<glyph unicode="&#x20;" horiz-adv-x="512" d="" />
<glyph unicode="&#xe900;" glyph-name="arrow-down" d="M914.204 459.093l-402.204-402.204-402.204 402.204 80.213 80.782 265.102-265.102v635.449h113.778v-635.449l265.102 265.102 80.213-80.782z" />
<glyph unicode="&#xe901;" glyph-name="arrow-left" d="M515.982 52.907l-402.204 402.204 402.204 402.204 80.213-80.213-264.533-265.102h635.449v-113.778h-635.449l264.533-265.102-80.213-80.213z" />
<glyph unicode="&#xe902;" glyph-name="arrow-right" d="M508.018 52.907l402.204 402.204-402.204 402.204-80.782-80.213 265.102-265.102h-635.449v-113.778h635.449l-265.102-265.102 80.782-80.213z" />
<glyph unicode="&#xe903;" glyph-name="arrow-up" d="M914.204 451.129l-402.204 402.204-402.204-402.204 80.213-80.213 265.102 264.533v-635.449h113.778v635.449l265.102-264.533 80.213 80.213z" />
<glyph unicode="&#xe904;" glyph-name="attachment" d="M625.778 894.293l-442.596-442.596c-49.403-51.099-79.847-120.798-79.847-197.607 0-157.094 127.35-284.444 284.444-284.444 76.809 0 146.507 30.444 197.687 79.924l-0.080-0.077 324.836 321.991c8.502 9.883 13.679 22.839 13.679 37.004 0 31.419-25.47 56.889-56.889 56.889-14.165 0-27.121-5.177-37.079-13.742l0.075 0.063-324.836-321.991c-30.888-30.817-73.521-49.873-120.604-49.873-94.309 0-170.762 76.453-170.762 170.762 0 47.225 19.171 89.973 50.154 120.886l442.030 442.030c10.311 10.393 24.6 16.828 40.391 16.828s30.080-6.434 40.387-16.824l0.004-0.004c10.224-10.283 16.543-24.457 16.543-40.107s-6.319-29.824-16.546-40.109l-442.593-442.593c-8.502-9.883-13.679-22.839-13.679-37.004 0-31.419 25.47-56.889 56.889-56.889 14.165 0 27.121 5.177 37.079 13.742l-0.075-0.063 442.596 442.027c30.987 30.916 50.157 73.664 50.157 120.889 0 94.309-76.453 170.762-170.762 170.762-47.084 0-89.717-19.056-120.608-49.876l0.003 0.003z" />
<glyph unicode="&#xe905;" glyph-name="audio" d="M284.444 786.773v-563.769c-12.771 3.958-27.452 6.237-42.667 6.237s-29.896-2.28-43.722-6.516l1.056 0.278c-73.876-16.611-130.223-76.021-142.084-150.276l-0.138-1.048c0-63.147 63.716-96.711 142.222-75.662 74.193 16.384 130.758 76.206 142.096 150.882l0.126 1.011v426.667l455.111 122.88v-335.644c-12.772 3.942-27.454 6.213-42.667 6.213s-29.895-2.27-43.727-6.491l1.060 0.278c-74.193-16.384-130.758-76.206-142.096-150.882l-0.126-1.011c0-62.578 63.716-96.711 142.222-75.662 73.572 16.461 129.789 75.357 142.075 149.114l0.148 1.073v655.929z" />
<glyph unicode="&#xe906;" glyph-name="bookmark" d="M853.333 910.222h-682.667v-910.222l345.316 284.444 337.351-284.444v910.222z" />
<glyph unicode="&#xe907;" glyph-name="calendar" d="M853.333 853.333v113.778h-227.556v-113.778h-227.556v113.778h-227.556v-113.778h-170.667v-910.222h1024v910.222zM910.222 56.889h-796.444v568.889h796.444zM341.333 796.444h-113.778v113.778h113.778zM796.444 796.444h-113.778v113.778h113.778zM284.444 455.111h-56.889v56.889h56.889zM455.111 455.111h-56.889v56.889h56.889zM625.778 455.111h-56.889v56.889h56.889zM796.444 455.111h-56.889v56.889h56.889zM284.444 284.444h-56.889v56.889h56.889zM455.111 284.444h-56.889v56.889h56.889zM625.778 284.444h-56.889v56.889h56.889zM796.444 284.444h-56.889v56.889h56.889zM284.444 113.778h-56.889v56.889h56.889zM455.111 113.778h-56.889v56.889h56.889zM625.778 113.778h-56.889v56.889h56.889z" />
<glyph unicode="&#xe908;" glyph-name="camera" d="M512 583.111c-102.111 0-184.889-82.778-184.889-184.889s82.778-184.889 184.889-184.889c102.111 0 184.889 82.778 184.889 184.889v0c-0.322 101.981-82.907 184.566-184.858 184.889h-0.031zM881.778 56.889h-739.556c-47.128 0-85.333 38.205-85.333 85.333v0 455.111c0 47.128 38.205 85.333 85.333 85.333v0h113.778l20.48 101.831c8.146 39.175 42.124 68.278 82.998 68.835l0.060 0.001h304.924c41.169-0.279 75.439-29.475 83.529-68.278l0.097-0.558 20.48-101.831h113.778c46.883-0.323 84.764-38.403 84.764-85.331 0-0.001 0-0.001 0-0.002v0-455.111c0-47.128-38.205-85.333-85.333-85.333v0z" />
<glyph unicode="&#xe909;" glyph-name="caret-down" d="M512 388.551l224.711 224.711 80.213-80.782-304.924-304.924-304.924 304.924 80.213 80.782 224.711-224.711z" />
<glyph unicode="&#xe90a;" glyph-name="caret-large-down" d="M512 331.662l366.933 366.933 80.213-80.782-447.147-447.147-447.147 447.147 80.213 80.782 366.933-366.933z" />
<glyph unicode="&#xe90b;" glyph-name="caret-large-left" d="M388.551 455.111l366.933-366.933-80.782-80.213-447.147 447.147 447.147 447.147 80.782-80.213-366.933-366.933z" />
<glyph unicode="&#xe90c;" glyph-name="caret-large-right" d="M635.449 455.111l-366.933-366.933 80.782-80.213 447.147 447.147-447.147 447.147-80.782-80.213 366.933-366.933z" />
<glyph unicode="&#xe90d;" glyph-name="caret-large-up" d="M512 578.56l366.933-366.933 80.213 80.782-447.147 447.147-447.147-447.147 80.213-80.782 366.933 366.933z" />
<glyph unicode="&#xe90e;" glyph-name="caret-left" d="M445.44 455.111l224.711-224.711-80.782-80.213-304.924 304.924 304.924 304.924 80.782-80.213-224.711-224.711z" />
<glyph unicode="&#xe90f;" glyph-name="caret-right" d="M578.56 455.111l-224.711-224.711 80.782-80.213 304.924 304.924-304.924 304.924-80.782-80.213 224.711-224.711z" />
<glyph unicode="&#xe910;" glyph-name="caret-up" d="M512 521.671l224.711-224.711 80.213 80.782-304.924 304.924-304.924-304.924 80.213-80.782 224.711 224.711z" />
<glyph unicode="&#xe911;" glyph-name="cart-fotomoto" d="M568.889 455.111h398.222c31.419 0 56.889 25.47 56.889 56.889v0 398.222c0 31.419-25.47 56.889-56.889 56.889v0h-398.222c-31.419 0-56.889-25.47-56.889-56.889v0-398.222c0-31.419 25.47-56.889 56.889-56.889v0zM880.071 568.889c-15.526 0.628-27.876 13.368-27.876 28.991 0 16.024 12.99 29.013 29.013 29.013 16.016 0 29.001-12.977 29.013-28.99v-0.001c0-0.007 0-0.014 0-0.022 0-16.024-12.99-29.013-29.013-29.013-0.4 0-0.798 0.008-1.195 0.024l0.057-0.002zM625.778 824.889c0 15.709 12.735 28.444 28.444 28.444v0h227.556c15.709 0 28.444-12.735 28.444-28.444v0c0-15.709-12.735-28.444-28.444-28.444v0h-199.111v-56.889h170.667c15.709 0 28.444-12.735 28.444-28.444v0c0-15.709-12.735-28.444-28.444-28.444v0h-170.667v-85.333c0-15.709-12.735-28.444-28.444-28.444s-28.444 12.735-28.444 28.444v0zM796.444 56.889c0.004-0.345 0.006-0.753 0.006-1.161 0-62.838-50.94-113.778-113.778-113.778s-113.778 50.94-113.778 113.778c0 21.419 5.919 41.456 16.209 58.564l-0.287-0.514h-202.524c9.246-16.089 14.699-35.376 14.699-55.935 0-62.838-50.94-113.778-113.778-113.778s-113.778 50.94-113.778 113.778c0 57.655 42.884 105.294 98.495 112.76l0.584 0.064-29.013 113.778-83.058 341.333-28.444 113.778h-128v56.889h170.667l42.667-170.667h241.778v-134.827c0-51.213 41.516-92.729 92.729-92.729v0h248.604l-28.444-113.778h-467.627l28.444-113.778h353.849c62.838 0 113.778-50.94 113.778-113.778v0z" />
<glyph unicode="&#xe912;" glyph-name="checkbox-checked" d="M1024-56.889h-1024v1024h1024zM910.222 853.333h-796.444v-796.444h796.444zM705.991 762.88l-232.676-404.48-196.836 113.778-56.889-98.987 295.253-170.667 289.564 503.467z" />
<glyph unicode="&#xe913;" glyph-name="checkmark" d="M760.604 842.524l-312.889-541.582-246.329 142.222-87.609-147.911 393.671-227.556 402.773 689.493-147.342 85.333z" />
<glyph unicode="&#xe914;" glyph-name="close" d="M914.204 777.102l-80.213 80.213-321.991-321.991-321.991 321.991-80.213-80.213 321.991-321.991-321.991-321.991 80.213-80.213 321.991 321.991 321.991-321.991 80.213 80.213-321.991 321.991 321.991 321.991z" />
<glyph unicode="&#xe915;" glyph-name="comment" d="M113.778 16.498v779.947h796.444v-568.889h-585.387zM227.556 682.667v-341.333h568.889v341.333z" />
<glyph unicode="&#xe916;" glyph-name="connect" d="M739.556 341.333c-52.559-0.243-99.472-24.207-130.618-61.728l-0.227-0.281-202.524 118.898c6.65 16.882 10.505 36.435 10.505 56.889s-3.855 40.007-10.878 57.973l0.373-1.084 202.524 113.778c31.518-37.42 78.399-61.031 130.794-61.031 94.257 0 170.667 76.41 170.667 170.667s-76.41 170.667-170.667 170.667c-92.8 0-168.301-74.067-170.612-166.31l-0.004-0.214c0.564-20.596 4.69-40.067 11.78-58.046l-0.402 1.157-202.524-118.898c-31.532 37.993-78.765 62.009-131.608 62.009-94.257 0-170.667-76.41-170.667-170.667s76.41-170.667 170.667-170.667c52.843 0 100.076 24.016 131.381 61.728l0.227 0.281 202.524-118.898c-6.688-16.821-10.814-36.293-11.373-56.655l-0.005-0.234c0-94.257 76.41-170.667 170.667-170.667s170.667 76.41 170.667 170.667c0 94.257-76.41 170.667-170.667 170.667v0z" />
<glyph unicode="&#xe917;" glyph-name="contract" d="M64.853 88.178l195.698 196.267h-153.6v113.778h348.16v-348.16h-113.778v154.169l-196.267-196.267-80.213 80.213zM959.147 822.044l-196.267-196.267h154.169v-113.778h-348.16v348.16h113.778v-153.6l196.267 195.698 80.213-80.213z" />
<glyph unicode="&#xe918;" glyph-name="copy" d="M284.444 739.555v-739.556h625.778v739.556zM170.667 853.333h568.889v113.778h-682.667v-796.444h113.778z" />
<glyph unicode="&#xe919;" glyph-name="cut" d="M674.133 373.191l-68.267 68.267 361.244 360.676-80.213 80.782-361.244-361.244-360.676 361.244-80.782-80.782 361.244-360.676-68.267-68.267c-26.982 14.683-59.088 23.316-93.212 23.316-109.338 0-197.973-88.636-197.973-197.973s88.636-197.973 197.973-197.973c109.338 0 197.973 88.636 197.973 197.973 0 34.615-8.884 67.155-24.496 95.465l0.517-1.022 67.698 68.267 68.267-68.267c-15.137-27.412-24.045-60.092-24.045-94.853 0-109.966 89.145-199.111 199.111-199.111s199.111 89.145 199.111 199.111c0 109.966-89.145 199.111-199.111 199.111-34.761 0-67.441-8.908-95.883-24.565l1.030 0.52zM341.333 138.809c-15.197-14.19-35.668-22.903-58.174-22.903-47.128 0-85.333 38.205-85.333 85.333 0 22.506 8.712 42.976 22.948 58.223l-0.046-0.050c15.621 16.731 37.808 27.16 62.431 27.16 47.128 0 85.333-38.205 85.333-85.333 0-24.623-10.429-46.81-27.11-62.385l-0.050-0.046zM826.027 138.809c-15.375-15.558-36.713-25.194-60.302-25.194s-44.927 9.636-60.294 25.186l-0.008 0.008c-14.19 15.197-22.903 35.668-22.903 58.174 0 47.128 38.205 85.333 85.333 85.333 22.506 0 42.976-8.712 58.223-22.948l-0.050 0.046c16.248-15.473 26.353-37.269 26.353-61.426 0-23.032-9.186-43.919-24.094-59.196l0.017 0.017z" />
<glyph unicode="&#xe91a;" glyph-name="digg" d="M341.333 625.778h56.889v-341.333h-56.889zM227.556 739.555h56.889v-455.111h-227.556v341.333h170.667zM227.556 568.889h-113.778v-227.556h113.778zM341.333 682.667h56.889v56.889h-56.889zM455.111 625.778h227.556v-455.111h-227.556v56.889h170.667v56.889h-170.667zM512 341.333h113.778v227.556h-113.778zM967.111 625.778v-455.111h-227.556v56.889h170.667v56.889h-170.667v341.333zM910.222 341.333v227.556h-113.778v-227.556z" />
<glyph unicode="&#xe91b;" glyph-name="document" d="M628.622 910.222h-514.844v-910.222h796.444v625.778zM625.778 773.12l147.342-147.342h-147.342zM796.444 113.778h-568.889v682.667h284.444v-284.444h284.444z" />
<glyph unicode="&#xe91c;" glyph-name="download" d="M753.209 525.653l-241.209-241.209-241.209 241.209 80.213 80.782 104.107-104.107v351.004h113.778v-351.004l104.107 104.107 80.213-80.782zM796.444 284.444v-113.778h-568.889v113.778h-113.778v-227.556h796.444v227.556h-113.778z" />
<glyph unicode="&#xe91d;" glyph-name="edit" d="M923.876 719.644l-147.342 147.342c-15.5 15.284-36.799 24.724-60.302 24.724s-44.802-9.439-60.312-24.733l0.010 0.010-459.662-460.231c-27.656-29.767-49.101-65.714-62.013-105.507l-0.565-2.013-56.889-203.093c-1.818-5.624-2.867-12.094-2.867-18.81 0-16.727 6.503-31.934 17.12-43.232l-0.031 0.033c10.217-9.868 24.148-15.948 39.499-15.948 0.514 0 1.026 0.007 1.537 0.020l-0.075-0.002c7.546 0.157 14.778 1.185 21.698 2.988l-0.649-0.144 203.093 56.889c41.843 13.342 77.816 34.808 107.68 62.726l-0.16-0.148 460.231 459.662c14.952 15.438 24.168 36.51 24.168 59.733s-9.216 44.295-24.19 59.756l0.022-0.023zM341.333 131.413l-95.004-25.6-83.627 83.627 25.6 95.004c5.714 17.383 12.844 32.438 21.565 46.397l-0.516-0.886 177.493-177.493c-13.073-8.205-28.128-15.335-44.025-20.621l-1.486-0.428z" />
<glyph unicode="&#xe91e;" glyph-name="email" d="M512 853.333l-455.111-256v-540.444h910.222v540.444zM861.867 591.075l-349.867-185.458-349.867 185.458 349.867 196.836z" />
<glyph unicode="&#xe91f;" glyph-name="email-send" d="M56.889 512l227.556-113.778v-420.978l232.676 245.76 268.516-245.76 192.284 954.027zM398.222 398.222l383.431 300.373-383.431-446.009z" />
<glyph unicode="&#xe920;" glyph-name="end" d="M227.556 750.933v-591.644l512 295.822-512 295.822zM853.333 739.555h-113.778v-568.889h113.778z" />
<glyph unicode="&#xe921;" glyph-name="error" d="M758.329 881.778h-492.658l-246.329-426.667 246.329-426.667h492.658l246.329 426.667zM512 170.667c-47.128 0-85.333 38.205-85.333 85.333s38.205 85.333 85.333 85.333c47.128 0 85.333-38.205 85.333-85.333v0c0-47.128-38.205-85.333-85.333-85.333v0zM568.889 455.111h-113.778v284.444h113.778z" />
<glyph unicode="&#xe922;" glyph-name="exchange" d="M398.222 625.778h-137.671c55.214 81.431 147.324 134.237 251.767 134.237 124.062 0 230.723-74.508 277.675-181.217l0.763-1.944h129.707c-53.846 177.581-216.082 304.617-407.989 304.617-139.55 0-263.41-67.175-341.009-170.952l-0.797-1.114v143.929h-113.778v-341.333h341.333zM625.778 398.222v-113.778h137.671c-55.214-81.431-147.324-134.237-251.767-134.237-124.062 0-230.723 74.508-277.675 181.217l-0.763 1.944h-129.707c53.846-177.581 216.082-304.617 407.989-304.617 139.55 0 263.41 67.175 341.009 170.952l0.797 1.114v-143.929h113.778v341.333z" />
<glyph unicode="&#xe923;" glyph-name="expand" d="M576.853 600.178l196.267 196.267h-154.169v113.778h348.16v-348.16h-113.778v153.6l-196.267-195.698-80.213 80.213zM447.147 310.044l-195.698-196.267h153.6v-113.778h-348.16v348.16h113.778v-154.169l196.267 196.267 80.213-80.213z" />
<glyph unicode="&#xe924;" glyph-name="external" d="M463.076 486.4l253.156 253.156h-154.169v113.778h348.16v-348.16h-113.778v153.6l-253.156-252.587-80.213 80.213zM113.778 56.889v568.889h391.396l-113.778-113.778h-163.84v-341.333h341.333v163.84l113.778 113.778v-391.396h-568.889z" />
<glyph unicode="&#xe925;" glyph-name="facebook" d="M512 938.667c-267.060 0-483.556-216.495-483.556-483.556s216.495-483.556 483.556-483.556c267.060 0 483.556 216.495 483.556 483.556v0c-0.324 266.93-216.625 483.232-483.524 483.556h-0.031zM714.524 618.951h-109.796c-15.36 0-25.031-3.413-29.582-11.378-4.215-9.052-6.673-19.651-6.673-30.824 0-2.769 0.151-5.502 0.445-8.193l-0.030 0.332v-56.889h146.204l-19.911-113.778h-126.293v-365.796l-146.204 5.689v360.107h-71.111v113.778h70.542v70.542c-0.324 3.86-0.508 8.355-0.508 12.893 0 39.751 14.157 76.196 37.703 104.568l-0.218-0.27c28.045 25.152 65.306 40.531 106.158 40.531 5.287 0 10.514-0.258 15.669-0.761l-0.654 0.052h134.258z" />
<glyph unicode="&#xe926;" glyph-name="facetag" d="M276.48 504.035c-2.559 5.553-4.052 12.050-4.052 18.895 0 24.273 18.767 44.162 42.583 45.949l0.154 0.009c-23.893 170.667 96.142 192.853 170.667 192.853s192.284-24.462 170.667-192.853c23.547-2.254 41.815-21.935 41.815-45.882 0-6.007-1.149-11.745-3.24-17.007l0.109 0.312c-7.396-32.427-26.738-68.267-60.871-73.387-15.071-43.406-34.313-81.024-57.939-115.394l1.050 1.616c-20.901-28.879-54.504-47.45-92.444-47.45s-71.544 18.571-92.216 47.118l-0.229 0.332c-21.081 32.721-39.201 70.367-52.455 110.234l-1.021 3.543c-35.84 2.844-54.613 38.684-62.578 71.111zM682.667 197.404c-37.353 12.105-67.825 36.674-87.214 68.701l-0.395 0.703c-28.483-26.593-66.522-43.272-108.441-44.369l-0.216-0.004c-42.196 1.323-80.215 18.185-108.743 45.022l0.086-0.080c-19.404-33.208-50.005-58.082-86.521-69.675l-1.088-0.298c-74.524-27.876-113.778-56.889-113.778-108.089 89.567-33.205 193.029-52.417 300.979-52.417 4.188 0 8.369 0.029 12.543 0.087l-0.632-0.007c3.542-0.051 7.723-0.080 11.91-0.080 107.95 0 211.412 19.212 307.154 54.404l-6.176-1.986c-5.689 51.2-47.787 81.351-119.467 108.089zM967.111 910.222v-113.778h-56.889v56.889h-56.889v56.889zM113.778 910.222v-56.889h-56.889v-56.889h-56.889v113.778zM682.667 910.222h113.778v-56.889h-113.778zM512 910.222h113.778v-56.889h-113.778zM341.333 910.222h113.778v-56.889h-113.778zM170.667 910.222h113.778v-56.889h-113.778zM170.667 341.333h113.778v-56.889h-113.778zM682.667 341.333h113.778v-56.889h-113.778zM0 739.555h56.889v-113.778h-56.889zM910.222 739.555h56.889v-113.778h-56.889zM0 568.889h56.889v-113.778h-56.889zM910.222 568.889h56.889v-113.778h-56.889zM113.778 341.333v-56.889h-113.778v113.778h56.889v-56.889zM967.111 398.222v-113.778h-113.778v56.889h56.889v56.889z" />
<glyph unicode="&#xe927;" glyph-name="filter" d="M967.111 625.778c0 149.618-227.556 227.556-455.111 227.556s-455.111-77.938-455.111-227.556c1.74-45.973 23.429-86.553 56.608-113.556l0.281-0.222 291.271-284.444v-170.667c0-31.289 50.631-56.889 113.778-56.889s113.778 25.6 113.778 56.889v170.667l284.444 284.444c30.812 28.189 50.063 68.576 50.063 113.459 0 0.112 0 0.224 0 0.336v-0.017zM512 739.555c211.627 0 341.333-73.387 341.333-113.778s-129.707-113.778-341.333-113.778-341.333 73.387-341.333 113.778 129.707 113.778 341.333 113.778z" />
<glyph unicode="&#xe928;" glyph-name="flickr" d="M768 625.778c-109.966 0-199.111-89.145-199.111-199.111s89.145-199.111 199.111-199.111c109.966 0 199.111 89.145 199.111 199.111v0c0 109.966-89.145 199.111-199.111 199.111v0zM768 341.333c-47.128 0-85.333 38.205-85.333 85.333s38.205 85.333 85.333 85.333c47.128 0 85.333-38.205 85.333-85.333v0c0-47.128-38.205-85.333-85.333-85.333v0zM256 625.778c-109.966 0-199.111-89.145-199.111-199.111s89.145-199.111 199.111-199.111c109.966 0 199.111 89.145 199.111 199.111v0c0 109.966-89.145 199.111-199.111 199.111v0z" />
<glyph unicode="&#xe929;" glyph-name="folder" d="M446.009 682.667l-68.267 170.667h-320.853v-796.444h910.222v625.778zM853.333 170.667h-682.667v398.222h682.667z" />
<glyph unicode="&#xe92a;" glyph-name="folders" d="M739.556 796.444v-113.778h-682.667v113.778zM170.667 398.222h682.667v113.778h-682.667zM284.444 113.778h682.667v113.778h-682.667z" />
<glyph unicode="&#xe92b;" glyph-name="fotomoto" d="M853.333 910.222h-679.822c-64.409 0-116.622-52.214-116.622-116.622v0-679.822c1.59-63.173 53.179-113.778 116.588-113.778 0.012 0 0.024 0 0.037 0h679.82c62.206 1.547 112.231 51.572 113.775 113.632l0.003 0.145v679.822c0 0.010 0 0.023 0 0.035 0 63.409-50.605 114.998-113.631 116.585l-0.147 0.003zM341.333 398.222v-170.667c0-31.419-25.47-56.889-56.889-56.889s-56.889 25.47-56.889 56.889v0 455.111c-0.18 1.621-0.283 3.5-0.283 5.403 0 28.591 23.178 51.769 51.769 51.769 1.903 0 3.782-0.103 5.632-0.303l-0.229 0.020h455.111c31.419 0 56.889-25.47 56.889-56.889s-25.47-56.889-56.889-56.889v0h-398.222v-113.778h337.92c31.419 0 56.889-25.47 56.889-56.889s-25.47-56.889-56.889-56.889v0zM739.556 170.667c-31.419 0-56.889 25.47-56.889 56.889s25.47 56.889 56.889 56.889c31.419 0 56.889-25.47 56.889-56.889v0c0-31.419-25.47-56.889-56.889-56.889v0z" />
<glyph unicode="&#xe92c;" glyph-name="foursquare" d="M751.502 853.333h-444.302c-1.707 0.14-3.695 0.22-5.701 0.22-40.845 0-73.956-33.111-73.956-73.956 0-0.477 0.005-0.954 0.014-1.429l-0.001 0.071v-706.56c-0.209-1.679-0.329-3.623-0.329-5.594 0-19.078 11.18-35.545 27.345-43.206l0.29-0.124c5.306-2.063 11.448-3.258 17.869-3.258 13.885 0 26.464 5.589 35.611 14.64l-0.004-0.004 213.902 247.467c5.12 5.12 5.12 5.12 10.809 5.12h135.964c56.889 0 65.991 40.96 72.249 64.853s60.302 304.924 79.076 395.378c14.222 69.404-3.413 106.382-68.836 106.382zM739.556 351.573c4.551 19.911 60.302 304.924 79.076 395.378zM723.627 732.729l-18.773-97.28c-4.034-11.938-14.887-20.486-27.812-21.047l-0.064-0.002h-170.667c-0.516 0.030-1.121 0.047-1.729 0.047-17.595 0-31.858-14.263-31.858-31.858 0-0.417 0.008-0.831 0.024-1.244l-0.002 0.059v-21.049c-0.013-0.345-0.021-0.751-0.021-1.158 0-17.909 14.518-32.427 32.427-32.427 0.407 0 0.813 0.008 1.217 0.022l-0.058-0.002h147.342c13.547-1.092 24.128-12.355 24.128-26.089 0-1.232-0.085-2.444-0.25-3.63l0.016 0.137c-2.844-14.791-17.067-87.609-18.773-95.573-2.924-12.651-13.997-21.973-27.283-22.186h-119.49c-1.769 0.256-3.812 0.403-5.889 0.403-15.851 0-29.71-8.53-37.237-21.251l-0.11-0.201-146.773-175.787s0 0 0 0v551.822c0.312 14.64 12.098 26.426 26.708 26.737h356.722c11.633-1.108 20.659-10.829 20.659-22.659 0-2.057-0.273-4.050-0.784-5.945l0.037 0.159z" />
<glyph unicode="&#xe92d;" glyph-name="fullscreen" d="M341.333 910.222h-284.444v-284.444h113.778v170.667h170.667zM682.667 796.444h170.667v-170.667h113.778v284.444h-284.444zM341.333 113.778h-170.667v170.667h-113.778v-284.444h284.444zM682.667 0h284.444v284.444h-113.778v-170.667h-170.667z" />
<glyph unicode="&#xe92e;" glyph-name="fullscreen-off" d="M113.778 568.889h284.444v284.444h-113.778v-170.667h-170.667zM910.222 682.667h-170.667v170.667h-113.778v-284.444h284.444zM113.778 227.555h170.667v-170.667h113.778v284.444h-284.444zM910.222 341.333h-284.444v-284.444h113.778v170.667h170.667z" />
<glyph unicode="&#xe92f;" glyph-name="google" d="M992.142 512h-480.142v-170.667h291.271c-46.675-118.187-159.907-200.281-292.313-200.281-173.118 0-313.458 140.34-313.458 313.458s140.34 313.458 313.458 313.458c72.487 0 139.227-24.604 192.324-65.917l-0.705 0.528 121.173 121.173c-83.166 71.429-192.136 114.916-311.263 114.916-0.171 0-0.343 0-0.514 0h0.026c-267.060 0-483.556-216.495-483.556-483.556s216.495-483.556 483.556-483.556c267.060 0 483.556 216.495 483.556 483.556v0c0 19.342-1.707 38.116-3.413 56.889z" />
<glyph unicode="&#xe930;" glyph-name="heart" d="M512-29.582l-67.129 97.28c-36.27 48.23-80.265 88.418-130.52 119.438l-2.031 1.167c-167.822 110.364-255.431 241.209-255.431 380.587 0 277.049 189.44 307.2 269.653 307.2 72.756-1.067 138.238-31.343 185.41-79.595l0.048-0.050c48.506 47.677 114.884 77.306 188.18 77.937l0.122 0.001c163.271 0.569 266.809-117.191 266.809-305.493 0-173.511-134.827-292.409-253.156-376.036-52.076-34.514-96.423-75.604-133.334-122.792l-0.924-1.226zM326.542 761.173c-66.56 0-155.876-21.618-155.876-192.284 0-122.88 110.364-221.867 204.231-284.444 52.344-33.926 97.429-73.043 136.468-117.59l0.634-0.739c40.35 44.158 85.106 83.133 133.915 116.631l2.618 1.698c95.573 68.267 204.8 161.564 204.8 284.444 0 88.747-27.307 194.56-152.462 194.56-60.439-2.726-112.422-36.492-140.645-85.64l-0.44-0.831-47.787-75.662-48.356 76.231c-27.5 48.827-78.254 81.71-136.841 83.62l-0.261 0.007z" />
<glyph unicode="&#xe931;" glyph-name="help" d="M512 910.222c-251.351 0-455.111-203.76-455.111-455.111s203.76-455.111 455.111-455.111c251.351 0 455.111 203.76 455.111 455.111v0c0 251.351-203.76 455.111-455.111 455.111v0zM568.889 200.249c-2.639-7.572-7.159-13.926-13.011-18.715l-0.074-0.059c-5.579-4.932-12.214-8.816-19.51-11.261l-0.401-0.117c-6.956-2.167-14.954-3.416-23.243-3.416-0.229 0-0.457 0.001-0.686 0.003h0.035c-8.441 0.343-16.419 1.775-23.973 4.159l0.649-0.177c-7.723 2.459-14.376 6.357-19.956 11.418l0.045-0.040c-6.073 4.647-10.768 10.806-13.556 17.922l-0.097 0.282c-2.931 7.127-4.632 15.399-4.632 24.069 0 1.139 0.029 2.27 0.087 3.395l-0.006-0.157c-0.050 0.989-0.078 2.147-0.078 3.312 0 9.035 1.699 17.673 4.794 25.613l-0.165-0.48c2.956 7.437 7.414 13.723 13.036 18.731l0.049 0.043c5.826 4.292 12.664 7.619 20.059 9.576l0.421 0.095c6.906 2.208 14.884 3.639 23.144 3.976l0.181 0.006c0.193 0.002 0.422 0.003 0.651 0.003 8.289 0 16.287-1.248 23.815-3.568l-0.572 0.152c7.612-2.432 14.225-5.919 20.075-10.359l-0.164 0.119c5.67-5.051 10.129-11.336 12.968-18.443l0.116-0.33c3.257-7.827 5.148-16.92 5.148-26.454 0-0.7-0.010-1.397-0.030-2.092l0.002 0.102c0.019-0.59 0.030-1.283 0.030-1.979 0-9.149-1.894-17.855-5.312-25.748l0.162 0.42zM651.378 538.738c-3.006-10.597-7.281-19.861-12.757-28.271l0.241 0.395c-6.275-9.149-13.012-17.15-20.452-24.435l-0.028-0.027c-8.533-7.964-18.204-16.498-29.013-25.031-7.536-5.856-14.21-11.629-20.573-17.724l0.093 0.088c-4.761-3.97-8.888-8.459-12.37-13.433l-0.146-0.22c-2.469-3.926-4.425-8.48-5.622-13.333l-0.067-0.32c-0.136-2.548-0.213-5.532-0.213-8.533s0.077-5.985 0.231-8.948l-0.017 0.415v-33.564h-87.609v38.116c1.993 19.474 9.164 36.966 20.099 51.46l-0.188-0.26c4.698 8.536 10.378 15.848 17.026 22.149l0.040 0.038c7.442 8.018 15.436 15.291 24.006 21.852l0.456 0.335 21.618 17.636c4.973 4.779 9.46 9.988 13.427 15.592l0.227 0.337c3.919 4.476 7.021 9.779 9.005 15.6l0.097 0.329c0.481 2.992 0.755 6.442 0.755 9.956s-0.275 6.963-0.804 10.329l0.048-0.373c0.008 0.288 0.012 0.627 0.012 0.967 0 10.838-4.592 20.604-11.937 27.457l-0.022 0.020c-8.384 7.172-19.356 11.537-31.348 11.537-1.381 0-2.748-0.058-4.1-0.171l0.177 0.012c-16.252-0.233-31.664-3.555-45.764-9.404l0.822 0.302c-19.895-7.095-36.229-14.195-52.020-22.213l2.526 1.164-29.013 65.991c7.753 4.598 17.095 9.356 26.735 13.558l1.709 0.664c8.448 4.029 18.814 8.083 29.484 11.455l1.805 0.492c8.732 2.895 20.002 5.845 31.494 8.182l2.070 0.352c4.938 0.391 10.692 0.614 16.498 0.614s11.56-0.223 17.253-0.661l-0.756 0.047c1.193 0.027 2.598 0.042 4.008 0.042 18.837 0 37.040-2.717 54.237-7.78l-1.356 0.342c15.948-4.733 29.799-12.14 41.757-21.796l-0.228 0.178c11.328-8.915 20.247-20.389 25.955-33.577l0.214-0.556c6.112-13.206 9.677-28.661 9.677-44.948 0-0.398-0.002-0.796-0.006-1.193l0.001 0.061c-0.633-11.387-2.668-22.065-5.94-32.187l0.251 0.898z" />
<glyph unicode="&#xe932;" glyph-name="hide-bottom-panel" d="M1024 0v56.889h-113.778v284.444h-796.444v-284.444h-113.778v-56.889zM753.209 639.431l-241.209-241.209-241.209 241.209 80.213 80.782 104.107-104.107v294.116h113.778v-294.116l104.107 104.107 80.213-80.782z" />
<glyph unicode="&#xe933;" glyph-name="hide-top-panel" d="M0 910.222v-56.889h113.778v-284.444h796.444v284.444h113.778v56.889zM753.209 270.791l-241.209 241.209-241.209-241.209 80.213-80.782 104.107 104.107v-294.116h113.778v294.116l104.107-104.107 80.213 80.782z" />
<glyph unicode="&#xe934;" glyph-name="home" d="M512 853.333l-455.111-455.111h170.667v-341.333h227.556v170.667h113.778v-170.667h227.556v341.333h170.667l-455.111 455.111z" />
<glyph unicode="&#xe935;" glyph-name="image" d="M56.889 910.222v-910.222h910.222v910.222zM910.222 853.333v-259.982l-144.498 96.711-512-455.111-139.947 93.298v525.084zM341.333 512c-62.838 0-113.778 50.94-113.778 113.778s50.94 113.778 113.778 113.778c62.838 0 113.778-50.94 113.778-113.778v0c0-62.838-50.94-113.778-113.778-113.778v0z" />
<glyph unicode="&#xe936;" glyph-name="info" d="M512 910.222c-251.351 0-455.111-203.76-455.111-455.111s203.76-455.111 455.111-455.111c251.351 0 455.111 203.76 455.111 455.111v0c0 251.351-203.76 455.111-455.111 455.111v0zM568.889 227.555h-113.778v284.444h113.778zM512 568.889c-47.128 0-85.333 38.205-85.333 85.333s38.205 85.333 85.333 85.333c47.128 0 85.333-38.205 85.333-85.333v0c0-47.128-38.205-85.333-85.333-85.333v0z" />
<glyph unicode="&#xe937;" glyph-name="instagram" d="M922.738 865.849c27.391-26.602 44.387-63.778 44.387-104.924 0-0.713-0.005-1.424-0.015-2.135l0.001 0.107v-607.573c0-83.574-67.75-151.324-151.324-151.324v0h-607.573c-0.603-0.009-1.314-0.014-2.027-0.014-41.146 0-78.321 16.997-104.89 44.352l-0.034 0.036c-27.391 26.602-44.387 63.778-44.387 104.924 0 0.713 0.005 1.424 0.015 2.135l-0.001-0.107v607.573c-0.009 0.603-0.014 1.314-0.014 2.027 0 41.146 16.997 78.321 44.352 104.89l0.036 0.034c26.602 27.391 63.778 44.387 104.924 44.387 0.713 0 1.424-0.005 2.135-0.015l-0.107 0.001h607.573c0.603 0.009 1.314 0.014 2.027 0.014 41.146 0 78.321-16.997 104.89-44.352l0.034-0.036zM764.587 512c4.314-17.077 6.801-36.686 6.827-56.873v-0.016c0.010-0.838 0.016-1.828 0.016-2.819 0-70.719-29.194-134.619-76.188-180.306l-0.059-0.057c-45.389-47.045-108.988-76.26-179.411-76.26-1.326 0-2.65 0.010-3.971 0.031l0.2-0.002c-1.122-0.018-2.445-0.029-3.771-0.029-70.423 0-134.022 29.214-179.339 76.185l-0.072 0.075c-47.045 45.389-76.26 108.988-76.26 179.411 0 1.326 0.010 2.65 0.031 3.971l-0.002-0.2c0.025 20.203 2.513 39.812 7.179 58.561l-0.352-1.672h-88.747v-341.333c-0.003-0.194-0.004-0.423-0.004-0.652 0-15.455 6.556-29.378 17.038-39.141l0.032-0.030c9.792-10.515 23.716-17.071 39.17-17.071 0.229 0 0.458 0.001 0.687 0.004h568.854c15.616 0.229 29.673 6.716 39.813 17.057l0.009 0.009c10.515 9.792 17.071 23.716 17.071 39.17 0 0.229-0.001 0.458-0.004 0.687v-0.035 341.333zM337.92 455.111c0.322-96.012 78.068-173.758 174.049-174.080h0.031c96.012 0.322 173.758 78.068 174.080 174.049v0.031c0.002 0.298 0.003 0.65 0.003 1.002 0 20.087-3.758 39.296-10.61 56.962l0.367-1.075h-327.111c-6.843-16.358-10.817-35.366-10.817-55.303 0-0.558 0.003-1.114 0.009-1.671l-0.001 0.085zM853.333 768c0.016 0.347 0.025 0.754 0.025 1.163 0 15.081-12.226 27.307-27.307 27.307-0.409 0-0.816-0.009-1.22-0.027l0.058 0.002h-56.889c-0.347 0.016-0.754 0.025-1.163 0.025-15.081 0-27.307-12.226-27.307-27.307 0-0.409 0.009-0.816 0.027-1.22l-0.002 0.058v-56.889c-0.016-0.347-0.025-0.754-0.025-1.163 0-15.081 12.226-27.307 27.307-27.307 0.409 0 0.816 0.009 1.22 0.027l-0.058-0.002h56.889c0.347-0.016 0.754-0.025 1.163-0.025 15.081 0 27.307 12.226 27.307 27.307 0 0.409-0.009 0.816-0.027 1.22l0.002-0.058z" />
<glyph unicode="&#xe938;" glyph-name="jalbum" d="M921.6 864.711c52.338-51.769 45.511-118.329 45.511-185.458v-258.276c0-125.724 49.493-398.222-135.396-419.84-62.709-3.534-136.080-5.547-209.92-5.547-73.843 0-147.215 2.014-220.066 5.989l10.146-0.442c-127.431-1.138-354.987-36.409-354.987 158.72v395.378c0 120.036-35.84 335.644 135.396 354.987 52.853 2.99 114.69 4.694 176.924 4.694s124.071-1.704 185.466-5.068l-8.542 0.373h212.196c9.541 1.579 20.536 2.482 31.742 2.482 50.246 0 96.255-18.145 131.83-48.24l-0.3 0.248zM877.227 600.747c-33.564 33.564-74.524 29.013-93.867 77.369s0 98.987-56.889 146.204c-95.573 77.938-198.542-16.498-215.609-113.778-59.337-18.168-110.214-39.412-158.482-64.931l4.882 2.354c-48.356-26.738-108.089 11.947-164.978-5.689-50.78-16.928-86.742-64.028-86.742-119.528 0-42.734 21.321-80.488 53.905-103.206l0.41-0.27c36.978-22.187 62.009-40.96 63.147-87.609 4.092-51.495 28.521-96.595 65.159-127.781l0.264-0.219c77.038-79.473 184.779-128.799 304.040-128.799 4.912 0 9.805 0.084 14.677 0.25l-0.708-0.019c120.036 10.809 199.68 108.658 244.053 212.764 34.702 82.489 80.782 227.556 26.738 312.889-6.258 6.258 23.324-36.409 0 0zM599.609 776.533c40.391 72.249 147.342-4.551 95.004-71.111-43.236-56.889-129.138 10.24-95.004 71.111zM580.267 575.715c30.72 0 17.636-35.271-5.689-35.271-8.567 1.42-15.019 8.774-15.019 17.636 0 9.866 7.998 17.863 17.863 17.863 1.004 0 1.989-0.083 2.949-0.242l-0.104 0.014c10.24 0-11.378 1.138 0 0zM316.871 461.938c26.738 0 13.084-36.978-5.12-39.822s-27.307 38.116 5.12 38.116zM263.396 498.347c-10.135-9.475-23.792-15.293-38.809-15.293-31.419 0-56.889 25.47-56.889 56.889 0 6.49 1.087 12.727 3.089 18.537l-0.12-0.4c10.246 10.019 24.281 16.201 39.76 16.201 31.419 0 56.889-25.47 56.889-56.889 0-7.469-1.439-14.602-4.056-21.136l0.135 0.383zM645.689 199.111c-43.319-25.656-95.478-40.818-151.178-40.818-96.562 0-182.482 45.565-237.432 116.366l-0.51 0.683c104.676 9.102 186.027 88.178 284.444 113.778 123.852 34.633 231.838 89.501 325.988 161.54l-2.29-1.682c-19.961-147.333-101.424-272.429-217.235-350.439l-1.787-1.134z" />
<glyph unicode="&#xe939;" glyph-name="library" d="M284.444 56.889h-113.778v796.444h113.778zM512 853.333h-113.778v-796.444h113.778zM695.182 853.333l-109.796-28.444 198.542-768 109.796 28.444z" />
<glyph unicode="&#xe93a;" glyph-name="link" d="M625.778 208.782l-113.778-113.778c-44.544-38.502-103.024-61.957-166.983-61.957-141.385 0-256 114.615-256 256 0 63.533 23.144 121.661 61.461 166.412l-0.291-0.348 120.604 120.604c46.253 46.397 110.227 75.104 180.907 75.104s134.654-28.707 180.9-75.098l0.006-0.006c20.201-20.099 36.983-43.611 49.413-69.603l0.65-1.508-50.062-49.493c-11.792-11.625-26.923-19.892-43.824-23.234l-0.549-0.091c-6.499 25.011-18.985 46.535-35.862 63.738l0.022-0.022c-25.874 25.541-61.441 41.316-100.693 41.316s-74.82-15.775-100.709-41.331l-120.589-120.589c-26.378-26.021-42.718-62.16-42.718-102.116 0-79.204 64.207-143.411 143.411-143.411 39.248 0 74.814 15.766 100.709 41.311l44.357 44.357c26.271-7.842 56.459-12.355 87.7-12.355 21.91 0 43.302 2.22 63.963 6.447l-2.045-0.35zM546.133 692.338l44.373 44.373c26.17 26.745 62.633 43.327 102.969 43.327 79.54 0 144.020-64.48 144.020-144.020 0-39.204-15.665-74.75-41.076-100.719l0.025 0.026-123.449-120.604c-25.874-25.541-61.441-41.316-100.693-41.316s-74.82 15.775-100.709 41.331l0.015-0.015c-16.854 17.18-29.34 38.705-35.623 62.738l-0.217 0.978c-17.451-3.433-32.581-11.7-44.384-23.334l0.010 0.010-50.062-49.493c12.912-27.483 29.51-50.994 49.507-71.125l-0.014 0.014c46.253-46.397 110.227-75.104 180.907-75.104s134.654 28.707 180.9 75.098l0.006 0.006 121.173 120.604c42.57 45.592 68.708 107.004 68.708 174.521 0 141.385-114.615 256-256 256-67.517 0-128.929-26.137-174.67-68.845l0.149 0.137-113.778-113.778c15.808 2.79 34.010 4.385 52.583 4.385 34.672 0 68.045-5.559 99.278-15.833l-2.243 0.639z" />
<glyph unicode="&#xe93b;" glyph-name="linkedin" d="M865.849 910.222h-707.698c-55.926 0-101.262-45.337-101.262-101.262v0-707.698c0-55.926 45.337-101.262 101.262-101.262h707.698c55.926 0 101.262 45.337 101.262 101.262v0 707.698c0 55.926-45.337 101.262-101.262 101.262v0zM398.222 170.667h-113.778v398.222h113.778zM398.222 651.378c-15.054-15.785-36.247-25.6-59.733-25.6s-44.679 9.815-59.702 25.567l-0.031 0.033c-15.785 15.054-25.6 36.247-25.6 59.733s9.815 44.679 25.567 59.702l0.033 0.031c15.054 15.785 36.247 25.6 59.733 25.6s44.679-9.815 59.702-25.567l0.031-0.033c15.785-15.054 25.6-36.247 25.6-59.733s-9.815-44.679-25.567-59.702l-0.033-0.031zM796.444 170.667h-113.778v227.556c0 31.419-25.47 56.889-56.889 56.889v0c-0.194 0.003-0.423 0.004-0.652 0.004-15.455 0-29.378-6.556-39.141-17.038l-0.030-0.032c-10.351-10.149-16.837-24.206-17.066-39.779v-227.599h-113.778v398.222h113.778v-71.111c34.133 47.218 67.698 71.111 99.556 71.111 0.284 0.002 0.621 0.004 0.957 0.004 35.806 0 67.861-16.058 89.357-41.365l0.139-0.168c23.311-25.722 37.579-60.014 37.579-97.639 0-1.074-0.012-2.145-0.035-3.213l0.003 0.159z" />
<glyph unicode="&#xe93c;" glyph-name="location" d="M483.556 910.222c-0.385 0.001-0.841 0.002-1.297 0.002-204.223 0-369.778-165.555-369.778-369.778 0-73.927 21.694-142.788 59.064-200.562l-0.878 1.448c65.991-102.4 311.751-398.222 311.751-398.222s245.76 295.822 311.751 398.222c36.491 56.326 58.185 125.186 58.185 199.112 0 203.878-164.998 369.22-368.745 369.776h-0.053zM483.556 426.667c-62.838 0-113.778 50.94-113.778 113.778s50.94 113.778 113.778 113.778c62.838 0 113.778-50.94 113.778-113.778v0c0-62.838-50.94-113.778-113.778-113.778v0z" />
<glyph unicode="&#xe93d;" glyph-name="loop" d="M700.871 739.555l65.422 65.422-80.213 79.076-200.818-201.387 200.818-201.387 80.213 80.782-61.44 63.716c89.56-5.999 159.933-80.114 159.933-170.667 0-94.456-76.571-171.027-171.027-171.027-3.903 0-7.776 0.131-11.614 0.388l0.52-0.028h-341.333c-94.257 0-170.667 76.41-170.667 170.667s76.41 170.667 170.667 170.667v0h56.889v113.778h-56.889c-157.094 0-284.444-127.35-284.444-284.444s127.35-284.444 284.444-284.444v0h341.333c2.713-0.093 5.901-0.146 9.102-0.146 157.175 0 284.59 127.415 284.59 284.59 0 153.974-122.279 279.388-275.026 284.432l-0.462 0.012z" />
<glyph unicode="&#xe93e;" glyph-name="map" d="M284.444 154.738l-284.444-75.662v676.409l284.444 75.662zM341.333 831.147l341.333-75.662v-676.409l-341.333 75.662zM1024 154.738l-284.444-75.662v676.409l284.444 75.662z" />
<glyph unicode="&#xe93f;" glyph-name="menu" d="M967.111 853.333v-113.778h-910.222v113.778zM56.889 398.222h910.222v113.778h-910.222zM56.889 56.889h910.222v113.778h-910.222z" />
<glyph unicode="&#xe940;" glyph-name="minus" d="M113.778 512h796.444v-113.778h-796.444v113.778z" />
<glyph unicode="&#xe941;" glyph-name="more" d="M625.778 455.111c0-62.838-50.94-113.778-113.778-113.778s-113.778 50.94-113.778 113.778c0 62.838 50.94 113.778 113.778 113.778v0c62.838 0 113.778-50.94 113.778-113.778v0zM853.333 568.889c-62.838 0-113.778-50.94-113.778-113.778s50.94-113.778 113.778-113.778c62.838 0 113.778 50.94 113.778 113.778v0c0 62.838-50.94 113.778-113.778 113.778v0zM170.667 568.889c-62.838 0-113.778-50.94-113.778-113.778s50.94-113.778 113.778-113.778c62.838 0 113.778 50.94 113.778 113.778v0c0 62.838-50.94 113.778-113.778 113.778v0z" />
<glyph unicode="&#xe942;" glyph-name="more-menu" d="M512 568.889c62.838 0 113.778-50.94 113.778-113.778s-50.94-113.778-113.778-113.778c-62.838 0-113.778 50.94-113.778 113.778v0c0 62.838 50.94 113.778 113.778 113.778v0zM398.222 796.444c0-62.838 50.94-113.778 113.778-113.778s113.778 50.94 113.778 113.778c0 62.838-50.94 113.778-113.778 113.778v0c-62.838 0-113.778-50.94-113.778-113.778v0zM398.222 113.778c0-62.838 50.94-113.778 113.778-113.778s113.778 50.94 113.778 113.778c0 62.838-50.94 113.778-113.778 113.778v0c-62.838 0-113.778-50.94-113.778-113.778v0z" />
<glyph unicode="&#xe943;" glyph-name="mostphotos" d="M512 967.111c-282.77 0-512-229.23-512-512s229.23-512 512-512c282.77 0 512 229.23 512 512v0c0 282.77-229.23 512-512 512v0zM841.956 215.040c-6.258-6.827-27.876-32.427-34.133-38.116s-14.222 0-18.204 5.689l-149.049 347.022-64.284-148.48c-4.551-9.102-11.947-9.102-15.929 0-9.007 22.926-17.797 41.652-27.588 59.759l1.419-2.87c-2.174 4.949-3.439 10.718-3.439 16.782s1.265 11.833 3.546 17.057l-0.107-0.275c5.12 11.947 56.889 131.413 90.453 213.902 1.054 5.935 6.174 10.383 12.333 10.383 0.667 0 1.322-0.052 1.96-0.153l-0.071 0.009c6.026-0.291 11.146-3.889 13.612-9.007l0.041-0.095c5.12-9.102 147.911-341.333 190.009-438.044 2.454-4.725 3.893-10.317 3.893-16.246 0-6.355-1.654-12.324-4.555-17.5l0.093 0.181zM645.689 96.142c3.413-11.378 2.844-22.756-6.827-26.738s-37.547-10.809-40.391-11.947c-11.947 0-17.067 0-24.462 16.498s-190.578 455.111-190.578 455.111-140.516-330.524-146.773-344.178-14.222-15.36-21.618-9.102c-11.895 11.659-22.731 24.3-32.411 37.825l-0.584 0.859c-2.999 4.769-4.779 10.568-4.779 16.782s1.779 12.013 4.857 16.915l-0.078-0.133c19.911 46.080 150.756 341.333 187.733 435.769 0 7.396 5.689 10.809 13.653 11.378s11.947-7.396 14.791-14.222 243.484-572.871 247.467-584.818z" />
<glyph unicode="&#xe944;" glyph-name="new" d="M341.902 640.569l18.204 44.942-90.453 56.32 25.6-104.676 46.649 3.413zM472.178 92.729l39.822-97.28 39.822 97.28-39.822 24.462-39.822-24.462zM728.747 637.155l26.169 104.676-91.022-56.32 18.204-44.942 46.649-3.413zM787.342 317.44l10.809-44.942 106.382 7.964-80.782 67.698-36.409-30.72zM995.556 563.769l-351.004 25.6-132.551 325.404-132.551-325.404-351.004-25.6 268.516-227.556-83.627-341.333 298.667 185.458 298.667-184.889-83.627 341.333zM512 279.324l-166.116-101.262 46.649 189.44-149.049 126.293 194.56 14.222 73.956 180.907 73.956-180.907 194.56-14.222-149.049-126.293 46.649-189.44zM237.227 317.44l-36.978 30.72-80.782-67.698 106.382-7.964 11.378 44.942z" />
<glyph unicode="&#xe945;" glyph-name="new-fill" d="M512 950.044l-140.516-344.747-371.484-27.307 284.444-240.071-88.747-361.813 316.302 194.56 316.302-196.267-88.747 363.52 284.444 240.071-371.484 27.307-140.516 344.747zM220.729 316.871l-39.253 33.564-85.333-72.249 113.778-8.533zM691.769 658.204l50.062-3.413 27.307 110.933-96.711-59.733zM332.231 658.204l19.342 47.787-96.711 60.871 29.582-110.933zM803.271 316.871l11.378-47.218 113.778 8.533-85.333 72.249zM512 105.244l-42.098-25.6 42.098-103.538 42.098 103.538z" />
<glyph unicode="&#xe946;" glyph-name="ok" d="M331.093 253.724l-201.387 201.387-80.213-80.213 200.818-201.387 80.782-80.213 643.413 643.413-80.213 80.213-563.2-563.2z" />
<glyph unicode="&#xe947;" glyph-name="one-level-up" d="M682.667 227.555c-94.257 0-170.667 76.41-170.667 170.667v0 237.227l160.996-160.996 80.213 80.782-298.098 298.098-298.098-298.098 80.213-80.782 160.996 160.996v-237.227c0-157.094 127.35-284.444 284.444-284.444v0h227.556v113.778z" />
<glyph unicode="&#xe948;" glyph-name="ordering" d="M525.653 669.013l-241.209 241.209-241.209-241.209 80.213-80.782 104.107 104.107v-521.671h113.778v521.671l104.107-104.107 80.213 80.782zM980.764 262.827l-241.209-241.778-241.209 241.778 80.213 80.213 104.107-104.107v500.622h113.778v-500.622l104.107 104.107 80.213-80.213z" />
<glyph unicode="&#xe949;" glyph-name="page" d="M685.511 967.111h-628.622v-1024h910.222v739.556zM682.667 830.009l147.342-147.342h-147.342zM853.333 56.889h-682.667v796.444h398.222v-284.444h284.444zM455.111 568.889h-170.667v170.667h170.667zM739.556 341.333h-455.111v56.889h455.111zM739.556 170.667h-455.111v56.889h455.111z" />
<glyph unicode="&#xe94a;" glyph-name="pause" d="M398.222 113.778h-170.667v682.667h170.667zM796.444 113.778h-170.667v682.667h170.667z" />
<glyph unicode="&#xe94b;" glyph-name="paypal" d="M829.44 803.271c-39.426 64.573-109.51 107.022-189.51 107.022-1.976 0-3.946-0.026-5.909-0.077l0.29 0.006h-398.222l-179.2-812.373h135.964l-22.187-97.849h235.52l56.889 269.084h167.253c2.511-0.069 5.466-0.109 8.43-0.109 159.373 0 292.127 113.976 321.196 264.864l0.329 2.053c5.418 18.285 8.536 39.293 8.536 61.030 0 92.921-56.977 172.534-137.9 205.809l-1.481 0.539zM431.218 746.382h113.778c0.826 0.030 1.796 0.047 2.77 0.047 45.557 0 82.489-36.932 82.489-82.489 0-11.301-2.273-22.072-6.386-31.879l0.202 0.544c-15.697-60.305-67.451-104.934-130.347-109.765l-0.497-0.031h-110.364zM921.6 582.542c-12.482-67.437-44.72-125.859-90.399-170.614l-0.054-0.053c-8.007-8.846-16.56-16.858-25.73-24.126l-0.439-0.336c-46.573-35.556-105.602-56.969-169.631-56.969-2.365 0-4.722 0.029-7.073 0.087l0.349-0.007h-211.058l-57.458-273.636h-117.76l9.102 40.96h40.96l56.889 269.084h167.822c2.511-0.069 5.466-0.109 8.43-0.109 159.373 0 292.127 113.976 321.196 264.864l0.329 2.053c5.051 18.43 7.954 39.592 7.954 61.432 0 38.517-9.028 74.925-25.083 107.224l0.631-1.403c25.912-14.648 48.056-32.441 66.931-53.254l0.198-0.222c21.012-31.638 33.526-70.501 33.526-112.286 0-19.359-2.686-38.090-7.705-55.841l0.349 1.443z" />
<glyph unicode="&#xe94c;" glyph-name="phone" d="M822.613 28.444c-7.928 0.021-15.557 1.268-22.718 3.56l0.532-0.147c-341.658 106.313-605.367 370.022-709.642 704.103l-2.038 7.577c-2.194 6.653-3.459 14.311-3.459 22.265 0 13.826 3.823 26.759 10.47 37.799l-0.185-0.331c10.482 18.823 28.022 32.648 48.954 37.999l0.54 0.117 152.462 38.116c5.668 1.464 12.176 2.304 18.879 2.304 34.411 0 63.652-22.14 74.254-52.952l0.165-0.552c14.93-47.256 31.902-87.549 52.056-125.908l-1.994 4.166c5.338-10.234 8.47-22.35 8.47-35.197 0-28.229-15.118-52.927-37.699-66.439l-0.352-0.195c-6.456-3.885-11.179-10.092-13.042-17.439l-0.042-0.197c-0.219-1.244-0.344-2.676-0.344-4.138 0-5.252 1.618-10.126 4.382-14.152l-0.055 0.085c60.899-88.422 135.152-162.674 220.713-221.707l2.861-1.866c3.793-2.435 8.421-3.881 13.388-3.881 1.704 0 3.368 0.17 4.977 0.495l-0.16-0.027c7.464 1.767 13.654 6.286 17.567 12.402l0.068 0.114c13.837 22.969 38.644 38.094 66.983 38.094 12.926 0 25.118-3.147 35.85-8.716l-0.433 0.205c34.141-18.315 74.248-35.29 115.981-48.629l5.192-1.433c31.364-10.767 53.504-40.007 53.504-74.419 0-6.703-0.84-13.211-2.421-19.422l0.117 0.543-38.116-152.462c-5.468-21.471-19.292-39.012-37.72-49.291l-0.396-0.203c-10.64-6.434-23.494-10.241-37.236-10.241-0.109 0-0.218 0-0.327 0.001h0.017z" />
<glyph unicode="&#xe94d;" glyph-name="pinterest" d="M555.236 306.631c-11.479 0.891-22.122 3.114-32.215 6.53l0.926-0.272c-12.379 5.285-23.053 11.577-32.784 19.036l0.357-0.263-24.462 16.498c-10.401-53.217-23.377-99.194-39.624-143.594l2.078 6.492c-13.248-34.876-35.431-63.837-63.788-84.979l-0.497-0.354c-4.015 17.4-6.317 37.381-6.317 57.9 0 13.896 1.056 27.545 3.091 40.872l-0.187-1.492c3.386 33.706 8.399 63.745 15.181 93.107l-0.959-4.929c4.551 19.911 11.378 47.787 20.48 82.489s15.36 61.44 18.773 81.92c-8.013 18.041-12.679 39.089-12.679 61.226 0 5.284 0.266 10.506 0.785 15.654l-0.053-0.648c1.731 27.241 13.358 51.474 31.289 69.404v0c10.423 11.236 25.267 18.244 41.748 18.244 8.585 0 16.725-1.902 24.024-5.306l-0.35 0.147c16.86-5.439 29.045-20.504 30.145-38.563l0.006-0.121c0.229-3.142 0.36-6.808 0.36-10.503 0-18.467-3.259-36.173-9.233-52.573l0.34 1.068c-9.671-21.618-14.791-44.942-21.618-67.129-3.588-10.382-5.659-22.347-5.659-34.795 0-7.821 0.818-15.452 2.373-22.811l-0.127 0.717c5.805-17.921 21.686-30.929 40.8-32.417l0.16-0.010c6.356-1.696 13.652-2.669 21.176-2.669 22.923 0 43.735 9.039 59.067 23.747l-0.030-0.028c23.529 22.634 40.841 51.571 49.222 84.094l0.271 1.239c5.816 21.283 9.158 45.72 9.158 70.938 0 12.697-0.847 25.197-2.488 37.445l0.157-1.432c-2.049 32.87-14.835 62.412-34.855 85.513l0.152-0.18c-25.585 26.044-60.38 42.967-99.101 45.487l-0.454 0.024c-5.824 0.621-12.582 0.975-19.422 0.975-71.244 0-133.517-38.405-167.248-95.641l-0.494-0.907c-15.116-24.339-24.077-53.872-24.077-85.498 0-9.993 0.895-19.777 2.608-29.277l-0.149 0.997c2.527-10.346 6.44-19.454 11.606-27.697l-0.228 0.39 12.516-22.756c3.279-6.478 5.199-14.123 5.199-22.216 0-0.99-0.029-1.974-0.085-2.95l0.006 0.135c-0.622-13.265-5.002-25.395-12.089-35.485l0.143 0.214c-63.716 16.498-95.004 67.129-91.022 153.6 0.156 61.114 26.617 116.017 68.654 154.008l0.181 0.161c40.23 39.272 92.989 65.872 151.728 73.253l1.303 0.134c12.257 1.775 26.41 2.789 40.8 2.789 54.911 0 106.374-14.762 150.637-40.535l-1.429 0.768c52.052-29.916 88.495-81.951 96.604-142.939l0.108-0.99c2.205-13.765 3.465-29.634 3.465-45.798 0-61.184-18.054-118.151-49.125-165.865l0.717 1.175c-30.013-51.562-85.021-85.669-147.995-85.669-6.182 0-12.287 0.329-18.299 0.97l0.748-0.065zM512 967.111c-282.77 0-512-229.23-512-512s229.23-512 512-512c282.77 0 512 229.23 512 512v0c0 282.77-229.23 512-512 512v0z" />
<glyph unicode="&#xe94e;" glyph-name="play" d="M284.444 783.36l568.889-328.249-568.889-328.249v656.498z" />
<glyph unicode="&#xe94f;" glyph-name="plus" d="M455.111 56.889v341.333h-341.333v113.778h341.333v341.333h113.778v-341.333h341.333v-113.778h-341.333v-341.333h-113.778z" />
<glyph unicode="&#xe950;" glyph-name="printer" d="M227.556 853.333h568.889v-284.444h-568.889zM796.444 56.889h-568.889v113.778h568.889zM967.111 170.667h-113.778v56.889h-682.667v-56.889h-113.778v341.333h910.222z" />
<glyph unicode="&#xe951;" glyph-name="reddit" d="M934.116 592.782c-19.774 20.382-47.42 33.031-78.020 33.031-0.971 0-1.94-0.013-2.905-0.038l0.143 0.003c-1.689 0.096-3.665 0.151-5.653 0.151-40.617 0-75.888-22.885-93.625-56.464l-0.278-0.576c-60.342 32.51-131.478 53.124-207.056 56.843l-1.158 0.045 69.404 153.031 129.707-39.253c6.369-16.833 17.188-30.769 31.031-40.782l0.258-0.178c13.34-9.95 30.149-15.931 48.355-15.931 0.2 0 0.4 0.001 0.6 0.002h-0.031c0.4-0.007 0.873-0.011 1.346-0.011 23.138 0 44.036 9.593 58.933 25.018l0.023 0.024c15.449 14.92 25.042 35.818 25.042 58.956 0 0.473-0.004 0.946-0.012 1.417l0.001-0.071c0.007 0.4 0.011 0.873 0.011 1.346 0 23.138-9.593 44.036-25.018 58.933l-0.024 0.023c-14.92 15.449-35.818 25.042-58.956 25.042-0.473 0-0.946-0.004-1.417-0.012l0.071 0.001c-1.234 0.070-2.679 0.11-4.132 0.11-30.886 0-57.576-17.966-70.189-44.018l-0.203-0.465-145.636 40.96c-3.48 1.635-7.557 2.589-11.857 2.589-12.986 0-23.939-8.702-27.347-20.593l-0.049-0.201-92.729-205.938c-74.79-3.997-143.956-24.592-205.001-58.136l2.477 1.247c-17.861 34.152-53.039 57.059-93.566 57.059-2.107 0-4.2-0.062-6.276-0.184l0.286 0.013c-0.823 0.022-1.791 0.035-2.763 0.035-30.6 0-58.245-12.649-77.993-33.003l-0.026-0.027c-20.408-20.559-33.020-48.88-33.020-80.147 0-23.324 7.018-45.010 19.059-63.059l-0.261 0.415c11.898-18.595 28.532-33.219 48.223-42.374l0.702-0.293c-6.852-19.38-10.811-41.729-10.811-65.003 0-0.348 0.001-0.695 0.003-1.042v0.053c2.208-84.95 47.904-158.76 115.566-200.216l1.056-0.601c74.649-52.46 167.425-83.838 267.529-83.838 4.948 0 9.878 0.077 14.789 0.229l-0.718-0.018c5.005-0.192 10.883-0.301 16.787-0.301 100.159 0 192.981 31.412 269.153 84.923l-1.495-0.996c67.594 42.661 112.22 116.362 113.774 200.591l0.003 0.227c0.002 0.294 0.002 0.641 0.002 0.989 0 23.274-3.959 45.623-11.241 66.41l0.429-1.408c20.392 9.448 37.026 24.071 48.652 42.212l0.273 0.455c11.78 17.634 18.798 39.319 18.798 62.644 0 31.267-12.612 59.589-33.027 80.154l0.007-0.007zM802.702 790.187c5.678 5.678 13.522 9.19 22.187 9.19 17.329 0 31.377-14.048 31.377-31.377 0-8.664-3.512-16.509-9.19-22.187v0c-5.528-5.993-13.42-9.734-22.187-9.734s-16.659 3.741-22.168 9.714l-0.019 0.021c-5.993 5.528-9.734 13.42-9.734 22.187s3.741 16.659 9.714 22.168l0.021 0.019zM149.618 458.524c-21.079 7.288-35.947 26.965-35.947 50.115 0 1.182 0.039 2.356 0.115 3.519l-0.008-0.158c0.229 15.616 6.716 29.673 17.057 39.813l0.009 0.009c9.792 10.515 23.716 17.071 39.17 17.071 0.229 0 0.458-0.001 0.687-0.004h-0.035c0.202 0.003 0.441 0.004 0.681 0.004 22.308 0 41.616-12.84 50.939-31.532l0.149-0.33c-28.883-21.639-53.096-47.662-72.114-77.334l-0.703-1.173zM284.444 398.222c0.229 15.616 6.716 29.673 17.057 39.813l0.009 0.009c9.792 10.515 23.716 17.071 39.17 17.071 0.229 0 0.458-0.001 0.687-0.004h-0.035c31.419 0 56.889-25.47 56.889-56.889v0c0.003-0.194 0.004-0.423 0.004-0.652 0-15.455-6.556-29.378-17.038-39.141l-0.032-0.030c-10.149-10.351-24.206-16.837-39.779-17.066h-0.043c-31.419 0-56.889 25.47-56.889 56.889v0zM670.151 224.142c-41.658-33.352-95.128-53.523-153.31-53.523-1.702 0-3.401 0.017-5.095 0.052l0.253-0.004c-1.441-0.030-3.139-0.048-4.841-0.048-58.181 0-111.652 20.171-153.799 53.901l0.489-0.378c-6.89 5.232-11.555 13.086-12.504 22.048l-0.012 0.139c-0.166 1.233-0.261 2.658-0.261 4.105 0 7.998 2.895 15.319 7.695 20.973l-0.039-0.047c4.876 7.395 12.883 12.385 22.090 13.079l0.097 0.006c0.98 0.094 2.118 0.147 3.269 0.147 7.709 0 14.858-2.396 20.744-6.484l-0.12 0.079c31.33-24.831 71.432-39.835 115.038-39.835 0.757 0 1.513 0.005 2.267 0.014l-0.115-0.001c1.067-0.022 2.324-0.035 3.585-0.035 42.968 0 82.534 14.568 114.027 39.034l-0.421-0.315c5.766 4.009 12.915 6.405 20.624 6.405 1.151 0 2.289-0.053 3.413-0.158l-0.144 0.011c9.257-0.575 17.356-5.093 22.705-11.88l0.051-0.067c4.408-5.758 7.063-13.061 7.063-20.984 0-1.426-0.086-2.832-0.253-4.213l0.016 0.166c-0.961-9.101-5.626-16.955-12.437-22.129l-0.079-0.057zM722.489 358.4c-10.149-10.351-24.206-16.837-39.779-17.066h-0.043c-31.419 0-56.889 25.47-56.889 56.889v0c0.229 15.616 6.716 29.673 17.057 39.813l0.009 0.009c9.792 10.515 23.716 17.071 39.17 17.071 0.229 0 0.458-0.001 0.687-0.004h-0.035c31.419 0 56.889-25.47 56.889-56.889v0c0.003-0.194 0.004-0.423 0.004-0.652 0-15.455-6.556-29.378-17.038-39.141l-0.032-0.030zM874.951 458.524c-20.271 30.59-44.606 56.554-72.62 77.945l-0.766 0.562c9.176 19.833 28.904 33.345 51.788 33.345 31.419 0 56.889-25.47 56.889-56.889 0-0.523-0.007-1.044-0.021-1.564l0.002 0.077c0.060-0.945 0.093-2.048 0.093-3.16 0-23.038-14.568-42.673-34.994-50.196l-0.371-0.119z" />
<glyph unicode="&#xe952;" glyph-name="refresh" d="M796.444 853.333v-143.36c-78.555 104.093-202.029 170.674-341.055 170.674-235.327 0-426.098-190.77-426.098-426.098s190.77-426.098 426.098-426.098c147.346 0 277.224 74.79 353.743 188.479l0.965 1.522-95.004 63.147c-56.871-85.665-152.928-141.369-261.995-141.369-173.118 0-313.458 140.34-313.458 313.458s140.34 313.458 313.458 313.458c109.067 0 205.124-55.704 261.273-140.214l0.722-1.155h-146.204v-113.778h341.333v341.333z" />
<glyph unicode="&#xe953;" glyph-name="search" d="M967.111 120.604l-218.453 220.729c29.611 48.751 47.317 107.593 47.786 170.536l0.001 0.131c0 188.513-152.82 341.333-341.333 341.333s-341.333-152.82-341.333-341.333c0-188.513 152.82-341.333 341.333-341.333v0c63.074 0.469 121.916 18.175 172.169 48.632l-1.503-0.846 220.729-218.453zM227.556 512c0 125.675 101.88 227.556 227.556 227.556s227.556-101.88 227.556-227.556c0-125.675-101.88-227.556-227.556-227.556v0c-125.675 0-227.556 101.88-227.556 227.556v0z" />
<glyph unicode="&#xe954;" glyph-name="search-small" d="M900.551 147.342l-209.92 209.351c30.299 43.408 48.548 97.19 48.924 155.213v0.094c0 157.094-127.35 284.444-284.444 284.444s-284.444-127.35-284.444-284.444c0-157.094 127.35-284.444 284.444-284.444v0c58.117 0.376 111.898 18.626 156.208 49.519l-0.901-0.595 209.351-209.92zM455.111 341.333c-94.257 0-170.667 76.41-170.667 170.667s76.41 170.667 170.667 170.667c94.257 0 170.667-76.41 170.667-170.667v0c0-94.257-76.41-170.667-170.667-170.667v0z" />
<glyph unicode="&#xe955;" glyph-name="share" d="M682.667 512v-113.778h170.667v-284.444h-682.667v284.444h170.667v113.778h-284.444v-512h910.222v512h-284.444zM753.209 669.013l-241.209 241.209-241.209-241.209 80.213-80.782 104.107 104.107v-351.004h113.778v351.004l104.107-104.107 80.213 80.782z" />
<glyph unicode="&#xe956;" glyph-name="shopping-cart" d="M739.556 227.555h-353.849l-28.444 113.778h467.627l85.333 341.333h-638.293l-44.373 170.667h-170.667v-56.889h128l113.778-455.111 29.013-113.778c-56.195-7.53-99.079-55.169-99.079-112.824 0-62.838 50.94-113.778 113.778-113.778s113.778 50.94 113.778 113.778c0 20.56-5.453 39.846-14.992 56.491l0.293-0.556h202.524c-9.569-16.31-15.221-35.92-15.221-56.85 0-62.838 50.94-113.778 113.778-113.778s113.778 50.94 113.778 113.778c0 62.838-50.94 113.778-113.778 113.778-1.049 0-2.095-0.014-3.137-0.042l0.154 0.003z" />
<glyph unicode="&#xe957;" glyph-name="shopping-cart-add" d="M796.444 113.778c0.004-0.345 0.006-0.753 0.006-1.161 0-62.838-50.94-113.778-113.778-113.778s-113.778 50.94-113.778 113.778c0 21.419 5.919 41.456 16.209 58.564l-0.287-0.514h-202.524c9.246-16.089 14.699-35.376 14.699-55.935 0-62.838-50.94-113.778-113.778-113.778s-113.778 50.94-113.778 113.778c0 57.655 42.884 105.294 98.495 112.76l0.584 0.064-29.013 113.778-83.058 341.333-28.444 113.778h-128v56.889h170.667l42.667-170.667h270.222v-85.333h170.667v-170.667h135.396l-21.618-85.333h-467.627l28.444-113.778h353.849c62.838 0 113.778-50.94 113.778-113.778v0zM1024 796.444h-170.667v170.667h-113.778v-170.667h-170.667v-113.778h170.667v-170.667h113.778v170.667h170.667z" />
<glyph unicode="&#xe958;" glyph-name="show-bottom-panel" d="M1024 0v56.889h-113.778v113.778h-796.444v-113.778h-113.778v-56.889zM753.209 555.235l-241.209 241.209-241.209-241.209 80.213-80.782 104.107 104.107v-294.116h113.778v294.116l104.107-104.107 80.213 80.782z" />
<glyph unicode="&#xe959;" glyph-name="show-top-panel" d="M0 910.222v-56.889h113.778v-113.778h796.444v113.778h113.778v56.889zM753.209 354.987l-241.209-241.209-241.209 241.209 80.213 80.782 104.107-104.107v294.116h113.778v-294.116l104.107 104.107 80.213-80.782z" />
<glyph unicode="&#xe95a;" glyph-name="site" horiz-adv-x="1081" d="M967.111 341.333v170.667h-398.222v113.778h113.778v284.444h-284.444v-284.444h113.778v-113.778h-398.222v-170.667h-113.778v-284.444h284.444v284.444h-113.778v113.778h341.333v-113.778h-113.778v-284.444h284.444v284.444h-113.778v113.778h341.333v-113.778h-113.778v-284.444h284.444v284.444z" />
<glyph unicode="&#xe95b;" glyph-name="skype" d="M934.684 378.88c0.117-0.684 0.183-1.472 0.183-2.276s-0.067-1.591-0.195-2.359l0.011 0.083v9.102c0.146-0.684 0.23-1.47 0.23-2.276s-0.084-1.591-0.243-2.35l0.013 0.074c4.66 22.899 7.35 49.237 7.396 76.196v0.035c0.003 0.564 0.004 1.231 0.004 1.898 0 118.199-48.063 225.172-125.712 302.441l-0.017 0.017c-38.355 38.75-83.825 70.371-134.301 92.758l-2.801 1.109c-49.305 21.658-106.752 34.394-167.139 34.702h-0.115c-0.833 0.006-1.818 0.010-2.804 0.010-27.806 0-54.935-2.904-81.098-8.425l2.55 0.45c-34.379 18.982-75.364 30.152-118.959 30.152-0.179 0-0.357 0-0.536-0.001h0.028c0 0 0 0-0.001 0-140.442 0-254.293-113.851-254.293-254.293 0-0.2 0-0.4 0.001-0.6v0.031c0.097-45.496 11.891-88.217 32.533-125.341l-0.675 1.324s0 3.413 0 5.12v-9.102c0.089 0.598 0.14 1.289 0.14 1.991s-0.051 1.393-0.149 2.068l0.009-0.077c-3.982-22.684-6.258-48.802-6.258-75.452 0-0.274 0-0.548 0.001-0.822v0.043c-0.013-1.258-0.021-2.744-0.021-4.232 0-58.131 11.503-113.575 32.356-164.181l-1.046 2.867c44.519-102.762 124.793-183.036 224.773-226.479l2.783-1.077c49.253-21.578 106.655-34.135 166.99-34.135 26.839 0 53.098 2.485 78.559 7.237l-2.633-0.408c36.046-20.789 79.277-33.054 125.372-33.054 140.442 0 254.293 113.851 254.293 254.293 0 45.802-12.109 88.775-33.3 125.894l0.657-1.249zM512 193.422c-152.462 0-220.729 75.093-220.729 131.413-0.009 0.348-0.014 0.758-0.014 1.168 0 26.706 21.65 48.356 48.356 48.356 0.605 0 1.208-0.011 1.807-0.033l-0.087 0.003c65.422 0 48.356-94.436 170.667-94.436 62.578 0 97.28 34.133 97.28 68.836 0 21.049-10.24 44.373-51.769 56.889l-133.689 31.289c-109.796 27.876-129.138 87.040-129.138 142.791 0 113.778 108.658 159.289 210.489 159.289s204.8-52.338 204.8-121.742c-1.3-26.61-23.191-47.693-50.006-47.693-2.428 0-4.815 0.173-7.15 0.507l0.267-0.031c-56.889 0-45.511 77.369-157.582 77.369-56.889 0-87.040-25.031-87.040-61.44s44.373-47.787 82.489-56.889l100.693-22.187c109.796-24.462 137.671-89.316 137.671-149.618 1.707-93.867-69.973-163.84-217.316-163.84zM581.404 35.271h9.102zM932.409 376.604c0.117 0.684 0.183 1.472 0.183 2.276s-0.067 1.591-0.195 2.359l0.011-0.083c0.146 0.684 0.23 1.47 0.23 2.276s-0.084 1.591-0.243 2.35l0.013-0.074zM89.884 536.462s0-3.413 0-5.12c0.089-0.598 0.14-1.289 0.14-1.991s-0.051-1.393-0.149-2.068l0.009 0.077zM435.2 877.795h-9.102z" />
<glyph unicode="&#xe95c;" glyph-name="star" d="M512 914.773l-132.551-325.404-351.004-25.6 268.516-227.556-83.627-341.333 298.667 185.458 298.667-184.889-83.627 341.333 268.516 227.556-351.004 25.6-132.551 324.836z" />
<glyph unicode="&#xe95d;" glyph-name="start" d="M796.444 750.933l-512-295.822 512-295.822v591.644zM170.667 170.667h113.778v568.889h-113.778z" />
<glyph unicode="&#xe95e;" glyph-name="stop" d="M796.444 739.555h-568.889v-568.889h568.889z" />
<glyph unicode="&#xe95f;" glyph-name="stumbleupon" d="M568.889 638.293v-56.889l40.96-21.618 72.818 23.324v56.889c-0.557 43.926-19.958 83.213-50.473 110.227l-0.158 0.137c-30.436 28.565-71.507 46.113-116.677 46.113-1.181 0-2.359-0.012-3.535-0.036l0.176 0.003c-0.943 0.020-2.054 0.031-3.169 0.031-46.129 0-87.774-19.197-117.383-50.038l-0.053-0.055c-30.896-29.661-50.093-71.307-50.093-117.436 0-1.114 0.011-2.226 0.033-3.334l-0.003 0.166v-227.556c0.003-0.194 0.004-0.423 0.004-0.652 0-15.455-6.556-29.378-17.038-39.141l-0.032-0.030c-10.149-10.351-24.206-16.837-39.779-17.066h-0.043c-0.194-0.003-0.423-0.004-0.652-0.004-15.455 0-29.378 6.556-39.141 17.038l-0.030 0.032c-10.515 9.792-17.071 23.716-17.071 39.17 0 0.229 0.001 0.458 0.004 0.687v-0.035 113.778h-113.778v-113.778c0-94.257 76.41-170.667 170.667-170.667v0c94.257 0 170.667 76.41 170.667 170.667v0 227.556c0.229 15.616 6.716 29.673 17.057 39.813l0.009 0.009c9.792 10.515 23.716 17.071 39.17 17.071 0.229 0 0.458-0.001 0.687-0.004h-0.035c0.641 0.026 1.392 0.041 2.148 0.041 14.478 0 27.692-5.408 37.733-14.314l-0.059 0.051c9.727-6.8 16.228-17.638 17.060-30.030l0.007-0.121zM910.222 398.222v113.778h-113.778v-113.778c0.003-0.194 0.004-0.423 0.004-0.652 0-15.455-6.556-29.378-17.038-39.141l-0.032-0.030c-10.149-10.351-24.206-16.837-39.779-17.066h-0.043c-0.315-0.007-0.687-0.011-1.060-0.011-16.017 0-30.336 7.274-39.832 18.7l-0.068 0.085c-10.015 12.508-16.072 28.562-16.072 46.032 0 1.618 0.052 3.224 0.154 4.817l-0.011-0.217v110.364l-72.818-21.618-40.96 21.618v-110.364c-0.055-1.668-0.086-3.63-0.086-5.598 0-48.601 19.105-92.74 50.215-125.316l-0.066 0.070c29.446-32.219 71.651-52.351 118.559-52.351 0.719 0 1.437 0.005 2.154 0.014l-0.109-0.001c94.257 0 170.667 76.41 170.667 170.667v0zM1024 455.111c0-282.77-229.23-512-512-512s-512 229.23-512 512c0 282.77 229.23 512 512 512v0c282.77 0 512-229.23 512-512v0z" />
<glyph unicode="&#xe960;" glyph-name="tag" d="M193.422 853.333h238.933c26.513-0.78 51.432-6.776 74.036-16.99l-1.218 0.492c24.687-9.803 45.844-23.47 63.806-40.476l-0.091 0.085 375.467-375.467c14.404-13.888 23.35-33.353 23.35-54.907 0-0.697-0.009-1.392-0.028-2.084l0.002 0.102c-0.289-22.125-9.125-42.131-23.35-56.916l0.026 0.027-284.444-284.444c-14.758-14.199-34.764-23.036-56.833-23.324l-0.056-0.001c-0.59-0.016-1.285-0.026-1.982-0.026-21.554 0-41.019 8.946-54.885 23.327l-0.022 0.023-375.467 375.467c-16.654 17.74-30.125 38.701-39.353 61.815l-0.469 1.332c-9.976 21.522-16.172 46.622-17.058 73.068l-0.008 0.319v238.933c0 43.986 35.658 79.644 79.644 79.644v0zM284.444 768c-47.128 0-85.333-38.205-85.333-85.333s38.205-85.333 85.333-85.333c47.128 0 85.333 38.205 85.333 85.333v0c0 47.128-38.205 85.333-85.333 85.333v0z" />
<glyph unicode="&#xe961;" glyph-name="text-document" d="M685.511 967.111h-628.622v-1024h910.222v739.556zM682.667 830.009l147.342-147.342h-147.342zM853.333 56.889h-682.667v796.444h398.222v-284.444h284.444zM739.556 341.333h-455.111v56.889h455.111zM455.111 512h-170.667v56.889h170.667zM455.111 682.667h-170.667v56.889h170.667zM739.556 170.667h-455.111v56.889h455.111z" />
<glyph unicode="&#xe962;" glyph-name="thumbnails" d="M455.111 512h-398.222v398.222h398.222zM967.111 512h-398.222v398.222h398.222zM455.111 0h-398.222v398.222h398.222zM967.111 0h-398.222v398.222h398.222z" />
<glyph unicode="&#xe963;" glyph-name="thumbnails-9" d="M284.444 682.667h-227.556v227.556h227.556zM625.778 682.667h-227.556v227.556h227.556zM284.444 341.333h-227.556v227.556h227.556zM625.778 341.333h-227.556v227.556h227.556zM967.111 682.667h-227.556v227.556h227.556zM967.111 341.333h-227.556v227.556h227.556zM284.444 0h-227.556v227.556h227.556zM625.778 0h-227.556v227.556h227.556zM967.111 0h-227.556v227.556h227.556z" />
<glyph unicode="&#xe964;" glyph-name="time" d="M1024 455.111c0-282.77-229.23-512-512-512s-512 229.23-512 512c0 282.77 229.23 512 512 512v0c282.77 0 512-229.23 512-512v0zM512 853.333c-219.932 0-398.222-178.29-398.222-398.222s178.29-398.222 398.222-398.222c219.932 0 398.222 178.29 398.222 398.222v0c0 219.932-178.29 398.222-398.222 398.222v0zM392.781 590.013l147.802-85.333c27.21-15.709 36.532-50.502 20.823-77.712s-50.502-36.532-77.712-20.823l-147.802 85.333c-27.21 15.709-36.532 50.502-20.823 77.712s50.502 36.532 77.712 20.823zM483.751 504.566l246.336 142.222c27.21 15.709 62.002 6.387 77.712-20.823s6.387-62.002-20.823-77.712l-246.336-142.222c-27.21-15.709-62.002-6.387-77.712 20.823s-6.387 62.002 20.823 77.712zM554.667 113.778c0-23.564-19.103-42.667-42.667-42.667s-42.667 19.103-42.667 42.667c0 23.564 19.103 42.667 42.667 42.667s42.667-19.103 42.667-42.667zM896 455.111c0-23.564-19.103-42.667-42.667-42.667s-42.667 19.103-42.667 42.667c0 23.564 19.103 42.667 42.667 42.667s42.667-19.103 42.667-42.667zM213.333 455.111c0-23.564-19.103-42.667-42.667-42.667s-42.667 19.103-42.667 42.667c0 23.564 19.103 42.667 42.667 42.667s42.667-19.103 42.667-42.667zM554.667 796.444c0-23.564-19.103-42.667-42.667-42.667s-42.667 19.103-42.667 42.667c0 23.564 19.103 42.667 42.667 42.667s42.667-19.103 42.667-42.667z" />
<glyph unicode="&#xe965;" glyph-name="trash" d="M768 796.444h-85.333v39.253c0 41.159-33.366 74.524-74.524 74.524v0h-249.173c-41.159 0-74.524-33.366-74.524-74.524v0-39.253h-85.333c-47.128 0-85.333-38.205-85.333-85.333v0-28.444h739.556v28.444c0 47.128-38.205 85.333-85.333 85.333v0zM170.667 0h625.778l56.889 568.889h-739.556zM625.778 455.111h56.889l-14.222-341.333h-56.889zM455.111 455.111h56.889v-341.333h-56.889zM341.333 455.111l14.222-341.333h-56.889l-14.222 341.333z" />
<glyph unicode="&#xe966;" glyph-name="tumblr" d="M922.738 865.849c27.391-26.602 44.387-63.778 44.387-104.924 0-0.713-0.005-1.424-0.015-2.135l0.001 0.107v-607.573c0-83.574-67.75-151.324-151.324-151.324v0h-607.573c-0.603-0.009-1.314-0.014-2.027-0.014-41.146 0-78.321 16.997-104.89 44.352l-0.034 0.036c-27.391 26.602-44.387 63.778-44.387 104.924 0 0.713 0.005 1.424 0.015 2.135l-0.001-0.107v607.573c-0.009 0.603-0.014 1.314-0.014 2.027 0 41.146 16.997 78.321 44.352 104.89l0.036 0.034c26.602 27.391 63.778 44.387 104.924 44.387 0.713 0 1.424-0.005 2.135-0.015l-0.107 0.001h607.573c0.603 0.009 1.314 0.014 2.027 0.014 41.146 0 78.321-16.997 104.89-44.352l0.034-0.036zM707.698 275.342c-27.083-18.174-60.231-29.315-95.929-30.147l-0.213-0.004c-0.698-0.021-1.52-0.033-2.344-0.033-16.208 0-31.324 4.674-44.074 12.749l0.338-0.2c-11.065 5.993-19.733 15.212-24.885 26.385l-0.146 0.353c-2.45 15.211-3.85 32.745-3.85 50.607 0 6.012 0.159 11.987 0.472 17.921l-0.035-0.83v159.858h145.636v113.778h-145.636v145.636h-88.747c-2.581-29.795-10.283-57.213-22.233-82.212l0.616 1.43c-11.192-21.093-25.461-38.992-42.45-53.859l-0.216-0.186c-20.295-14.807-43.983-26.501-69.539-33.752l-1.572-0.381v-90.453h85.333v-220.16c-0.082-2.048-0.129-4.452-0.129-6.868 0-20.534 3.379-40.278 9.61-58.708l-0.379 1.291c7.090-17.274 18.192-31.666 32.192-42.492l0.235-0.175c16.284-12.827 35.12-23.415 55.477-30.839l1.412-0.45c19.994-7.087 43.054-11.242 67.067-11.378h0.062c0.045 0 0.097 0 0.15 0 24.762 0 48.846 2.903 71.93 8.387l-2.107-0.422c28.39 7.474 52.98 16.804 76.279 28.348l-2.323-1.041z" />
<glyph unicode="&#xe967;" glyph-name="twitter" d="M874.951 640v-23.324c-0.285-67.434-13.418-131.72-37.075-190.648l1.235 3.483c-25.315-65.542-59.328-122.049-101.386-171.502l0.693 0.835c-46.211-53.171-103.163-95.725-167.614-124.506l-3.053-1.218c-64.919-30.205-140.927-47.826-221.051-47.826-2.287 0-4.571 0.014-6.852 0.043l0.347-0.003c-105.483 0.652-203.42 32.408-285.255 86.545l1.948-1.211q21.618 0 44.373 0c0.772-0.006 1.684-0.009 2.598-0.009 87.396 0 167.786 29.996 231.436 80.255l-0.789-0.601c-0.732-0.011-1.597-0.017-2.463-0.017-39.3 0-75.608 12.814-104.973 34.492l0.484-0.341c-30.323 23.692-53.384 55.376-66.134 91.897l-0.426 1.401c10.772-2.163 23.158-3.405 35.833-3.413h0.007c0.281-0.001 0.613-0.002 0.945-0.002 17.225 0 33.966 2.075 49.986 5.988l-1.437-0.297c-44.727 7.987-83.001 31.198-110.117 63.976l-0.248 0.308c-25.85 31.13-41.536 71.505-41.536 115.544 0 0.579 0.003 1.158 0.008 1.736l-0.001-0.088v3.982c23.685-14.646 52.402-23.325 83.147-23.325 0.169 0 0.337 0 0.506 0.001h-0.026c-50.545 31.333-83.707 86.505-83.707 149.423 0 1.869 0.029 3.731 0.087 5.586l-0.007-0.271c-0.001 0.222-0.002 0.486-0.002 0.749 0 34.7 9.958 67.075 27.172 94.422l-0.432-0.736c45.893-57.585 102.802-104.312 167.787-137.475l2.88-1.334c62.263-32.912 135.6-53.57 213.431-56.854l1.040-0.035c-3.613 12.557-5.691 26.98-5.691 41.889 0 0.273 0.001 0.547 0.002 0.82v-0.042c-0.004 0.468-0.007 1.022-0.007 1.577 0 51.641 21.843 98.18 56.795 130.881l0.101 0.093c33.111 34.831 79.692 56.587 131.357 56.889h0.056c1.657 0.055 3.605 0.086 5.56 0.086 51.833 0 98.558-21.867 131.453-56.88l0.088-0.095c44.773 8.344 84.675 23.792 120.538 45.285l-1.641-0.911c-14.145-43.886-42.951-79.703-80.53-102.506l-0.822-0.463c38.37 4.469 73.367 14.090 105.943 28.237l-2.405-0.93c-25.221-38.922-55.822-71.877-91.217-98.866l-0.943-0.69z" />
<glyph unicode="&#xe968;" glyph-name="upload" d="M753.209 612.124l-241.209 241.209-241.209-241.209 80.213-80.782 104.107 104.107v-351.004h113.778v351.004l104.107-104.107 80.213 80.782zM796.444 284.444v-113.778h-568.889v113.778h-113.778v-227.556h796.444v227.556h-113.778z" />
<glyph unicode="&#xe969;" glyph-name="user" d="M341.333 493.795c16.245-50.518 37.48-94.414 63.86-134.634l-1.282 2.083c25.034-33.748 64.746-55.381 109.511-55.381s84.477 21.633 109.252 55.016l0.259 0.365c23.946 38.118 44.251 82.051 58.671 128.573l1.062 3.978c40.391 5.12 63.716 48.356 72.818 85.902 1.944 5.493 3.067 11.828 3.067 18.426 0 28.081-20.346 51.41-47.101 56.050l-0.339 0.049c28.444 199.111-113.778 227.556-199.111 227.556s-227.556-28.444-199.111-227.556c-27.871-3.981-49.062-27.69-49.062-56.348 0-6.505 1.092-12.755 3.102-18.576l-0.12 0.4c9.102-37.547 32.427-80.782 74.524-85.902zM743.538 217.884c-43.985 14.236-79.835 43.257-102.504 81.083l-0.465 0.837c-33.789-31.29-78.757-50.935-128.292-52.332l-0.277-0.006c-50.078 1.479-95.251 21.333-129.257 53.016l0.119-0.109c-22.96-38.961-58.858-68.213-101.673-82.125l-1.296-0.364c-88.178-32.996-138.24-67.129-138.24-128 105.85-38.989 228.093-61.543 355.603-61.543 5.184 0 10.36 0.037 15.526 0.112l-0.782-0.009c4.221-0.061 9.205-0.095 14.196-0.095 127.502 0 249.738 22.551 362.935 63.883l-7.353-2.348c0 60.871-50.062 95.004-138.24 128z" />
<glyph unicode="&#xe96a;" glyph-name="video" d="M0 910.222v-910.222h1024v910.222zM227.556 113.778h-113.778v113.778h113.778zM227.556 398.222h-113.778v113.778h113.778zM227.556 682.667h-113.778v113.778h113.778zM682.667 113.778h-341.333v682.667h341.333zM910.222 113.778h-113.778v113.778h113.778zM910.222 398.222h-113.778v113.778h113.778zM910.222 682.667h-113.778v113.778h113.778z" />
<glyph unicode="&#xe96b;" glyph-name="video-play" d="M910.222 853.333h-796.444c-62.838 0-113.778-50.94-113.778-113.778v0-568.889c0-62.838 50.94-113.778 113.778-113.778v0h796.444c62.838 0 113.778 50.94 113.778 113.778v0 568.889c0 62.838-50.94 113.778-113.778 113.778v0zM227.556 170.667h-113.778v113.778h113.778zM227.556 398.222h-113.778v113.778h113.778zM227.556 625.778h-113.778v113.778h113.778zM398.222 297.529v315.164l272.498-157.582zM910.222 170.667h-113.778v113.778h113.778zM910.222 398.222h-113.778v113.778h113.778zM910.222 625.778h-113.778v113.778h113.778z" />
<glyph unicode="&#xe96c;" glyph-name="vimeo" d="M814.649 739.555c82.489 0 123.449-48.924 124.018-140.516 0-6.258 0-12.516 0-18.773q-5.12-117.191-170.667-318.009c-113.778-139.947-213.902-210.489-294.684-211.058-50.062 0-92.16 43.236-125.724 129.138l-35.271 117.76-34.133 117.76c-25.6 85.333-52.907 128-82.489 128-25.419-9.984-47.38-22.429-67.255-37.483l0.695 0.505-43.804 47.787 63.147 52.338 61.44 51.2c34.612 32.778 77.009 57.699 124.108 71.692l2.186 0.557h11.947q88.747 0 113.778-128c7.964-48.356 14.791-88.178 20.48-118.329 3.59-25.135 8.16-46.884 13.98-68.116l-0.895 3.832q29.013-120.604 63.147-121.173c17.636 0 44.373 26.169 80.782 79.076 26.156 33.831 45.86 74.074 56.448 117.875l0.441 2.16c0.134 2.21 0.211 4.794 0.211 7.396s-0.077 5.186-0.228 7.749l0.017-0.354q0 52.907-56.889 52.907c-22.854-0.623-44.468-5.16-64.447-12.963l1.301 0.447c37.547 124.018 114.347 186.596 228.693 186.596z" />
<glyph unicode="&#xe96d;" glyph-name="volume-down" d="M170.667 284.444h152.462l302.649-227.556v796.444l-302.649-227.556h-152.462zM853.333 455.111c0-0.053 0-0.116 0-0.179 0-62.793-25.434-119.646-66.562-160.818l0.002 0.002-40.391 40.391c30.84 30.877 49.912 73.514 49.912 120.604s-19.072 89.727-49.914 120.606l0.002-0.002 40.391 40.391c41.126-41.17 66.56-98.023 66.56-160.817 0-0.063 0-0.126 0-0.188v0.010z" />
<glyph unicode="&#xe96e;" glyph-name="volume-up" d="M56.889 284.444h152.462l302.649-227.556v796.444l-302.649-227.556h-152.462zM853.333 455.111c0.001-0.332 0.002-0.724 0.002-1.117 0-93.885-38.288-178.828-100.1-240.066l-0.026-0.026-40.391 40.391c51.287 51.443 82.998 122.427 82.998 200.818s-31.711 149.375-83.005 200.825l0.007-0.007 40.391 40.391c61.839-61.264 100.126-146.206 100.126-240.092 0-0.393-0.001-0.785-0.002-1.178v0.061zM672.996 616.107l-40.391-40.391c30.84-30.877 49.912-73.514 49.912-120.604s-19.072-89.727-49.914-120.606l0.002 0.002 40.391-40.391c41.233 41.188 66.739 98.113 66.739 160.996s-25.506 119.807-66.737 160.993l-0.002 0.002zM833.991 777.102l-37.547-40.391c72.925-72.204 118.081-172.34 118.081-283.022s-45.155-210.818-118.048-282.99l-0.033-0.032 40.391-40.391c82.466 82.377 133.478 196.227 133.478 321.991s-51.012 239.614-133.474 321.987l-0.004 0.004z" />
<glyph unicode="&#xe96f;" glyph-name="warning" d="M988.729 146.204l-391.964 679.253c-17.31 29.724-49.026 49.384-85.333 49.384s-68.023-19.661-85.081-48.916l-0.252-0.468-390.827-679.253c-8.303-13.925-13.212-30.709-13.212-48.64s4.909-34.715 13.455-49.082l-0.244 0.442c16.956-29.432 48.242-48.927 84.082-48.927 0.24 0 0.48 0.001 0.72 0.003h783.892c53.911 0.171 97.548 43.914 97.548 97.848 0 17.783-4.744 34.458-13.035 48.829l0.252-0.473zM512 113.778c-47.128 0-85.333 38.205-85.333 85.333s38.205 85.333 85.333 85.333c47.128 0 85.333-38.205 85.333-85.333v0c0-47.128-38.205-85.333-85.333-85.333v0zM568.889 341.333h-113.778v284.444h113.778z" />
<glyph unicode="&#xe970;" glyph-name="x" d="M882.347 92.729l-298.098 432.924 330.524 384.569h-75.662l-64.284-75.093-224.142-260.551-230.969 335.644h-262.827l64.853-92.729 284.444-411.876-349.298-405.618h75.662l306.631 356.693 227.556-331.093 15.929-25.6h262.258z" />
<glyph unicode="&#xe971;" glyph-name="zoom-in" d="M625.778 568.889h-113.778v113.778h-113.778v-113.778h-113.778v-113.778h113.778v-113.778h113.778v113.778h113.778v113.778zM967.111 120.604l-176.924 176.924c39.425 60.73 62.867 135.003 62.867 214.751 0 219.932-178.29 398.222-398.222 398.222s-398.222-178.29-398.222-398.222c0-219.932 178.29-398.222 398.222-398.222 79.748 0 154.021 23.442 216.304 63.81l-1.553-0.943 176.924-176.924zM170.667 512c0 157.094 127.35 284.444 284.444 284.444s284.444-127.35 284.444-284.444c0-157.094-127.35-284.444-284.444-284.444v0c-157.094 0-284.444 127.35-284.444 284.444v0z" />
<glyph unicode="&#xe972;" glyph-name="zoom-level" d="M967.111 120.604l-176.924 176.924c39.425 60.73 62.867 135.003 62.867 214.751 0 219.932-178.29 398.222-398.222 398.222s-398.222-178.29-398.222-398.222c0-219.932 178.29-398.222 398.222-398.222 79.748 0 154.021 23.442 216.304 63.81l-1.553-0.943 176.924-176.924zM170.667 512c0 157.094 127.35 284.444 284.444 284.444s284.444-127.35 284.444-284.444c0-157.094-127.35-284.444-284.444-284.444v0c-157.094 0-284.444 127.35-284.444 284.444v0zM599.609 455.111l-144.498-144.498-144.498 144.498zM310.613 568.889l144.498 144.498 144.498-144.498z" />
<glyph unicode="&#xe973;" glyph-name="zoom-out" d="M284.444 568.889h341.333v-113.778h-341.333v113.778zM967.111 120.604l-176.924 176.924c39.425 60.73 62.867 135.003 62.867 214.751 0 219.932-178.29 398.222-398.222 398.222s-398.222-178.29-398.222-398.222c0-219.932 178.29-398.222 398.222-398.222 79.748 0 154.021 23.442 216.304 63.81l-1.553-0.943 176.924-176.924zM170.667 512c0 157.094 127.35 284.444 284.444 284.444s284.444-127.35 284.444-284.444c0-157.094-127.35-284.444-284.444-284.444v0c-157.094 0-284.444 127.35-284.444 284.444v0z" />
<glyph unicode="&#xe974;" glyph-name="bluesky" d="M254.293 802.133c104.599-89.115 190.889-196.105 254.887-316.733l2.82-5.827c66.609 126.564 152.932 233.59 256.181 321.296l1.526 1.264c75.093 56.889 197.404 100.124 197.404-39.253-4.528-99.036-13.681-190.985-27.427-281.426l1.827 14.617c-32.427-113.778-150.756-145.636-256-128 184.32-31.289 230.969-134.827 129.707-238.933-191.716-196.836-275.911 49.493-297.529 113.778-3.982 11.947-5.689 17.067-5.689 12.516 0 4.551 0 0-5.689-12.516-21.618-63.147-105.813-309.476-298.098-113.778-100.693 104.107-56.889 207.644 130.276 238.933-105.813-17.636-224.142 11.947-256.569 128-9.102 33.564-25.031 238.933-25.031 266.809 0 139.378 121.742 95.573 197.404 39.253z" />
<glyph unicode="&#xe975;" glyph-name="threads" d="M729.884 488.107l-11.947 5.689c-6.827 131.982-77.938 203.662-196.836 204.231v0c-2.030 0.077-4.414 0.121-6.808 0.121-66.371 0-124.888-33.627-159.443-84.773l-0.433-0.681 64.284-43.804c20.726 30.498 55.256 50.269 94.404 50.269 2.413 0 4.808-0.075 7.184-0.223l-0.325 0.016c2.009 0.127 4.356 0.199 6.72 0.199 31.636 0 60.257-12.912 80.879-33.753l0.010-0.010c14.592-18.587 24.56-41.458 27.803-66.44l0.073-0.689c-24.296 4.337-52.264 6.817-80.811 6.817-11.6 0-23.105-0.409-34.5-1.215l1.533 0.087c-110.364-7.396-180.338-73.387-180.338-164.978 1.743-47.711 26.92-89.187 64.305-113.444l0.549-0.334c30.362-19.235 67.329-30.652 106.963-30.652 5.001 0 9.959 0.182 14.868 0.539l-0.658-0.038c56.872 0.186 107.401 27.176 139.641 68.992l0.306 0.413c25.491 34.244 42.493 76.209 47.131 121.83l0.086 1.050c26.443-15.367 47.211-37.966 59.923-65.092l0.379-0.9c7.599-18.253 12.013-39.456 12.013-61.69 0-47.476-20.124-90.253-52.306-120.264l-0.097-0.090c-50.883-48.334-119.841-78.063-195.744-78.063-6.99 0-13.921 0.252-20.785 0.748l0.92-0.053c-5.343-0.344-11.585-0.539-17.874-0.539-89.849 0-170.361 39.98-224.715 103.12l-0.327 0.388c-48.396 69.57-77.319 155.842-77.319 248.87 0 7.51 0.189 14.977 0.561 22.394l-0.042-1.042c-0.382 6.853-0.6 14.872-0.6 22.942 0 93.078 28.955 179.392 78.348 250.428l-0.949-1.442c54.681 63.529 135.193 103.508 225.042 103.508 6.288 0 12.531-0.196 18.721-0.582l-0.848 0.042c5.172 0.311 11.218 0.489 17.306 0.489 91.529 0 173.692-40.103 229.876-103.697l0.285-0.329c27.261-35.057 48.223-76.511 60.318-121.595l0.553-2.422 76.231 20.48c-15.557 59.398-42.055 111.191-77.447 155.578l0.647-0.84c-69.919 81.642-173.107 133.052-288.303 133.052-6.847 0-13.652-0.182-20.41-0.54l0.944 0.040c-6.141 0.366-13.323 0.574-20.553 0.574-113.946 0-215.799-51.778-283.314-133.089l-0.488-0.605c-59.075-82.742-94.454-185.937-94.454-297.395 0-8.651 0.213-17.252 0.634-25.799l-0.047 1.203c-0.358-7.183-0.562-15.599-0.562-24.062 0-111.443 35.369-214.625 95.495-298.933l-1.066 1.574c68.008-82.218 170.046-134.209 284.227-134.209 6.88 0 13.717 0.189 20.504 0.561l-0.944-0.041c6.496-0.422 14.083-0.662 21.727-0.662 96.938 0 184.845 38.67 249.135 101.425l-0.071-0.069c46.626 44.798 75.594 107.675 75.594 177.317 0 33.93-6.876 66.255-19.311 95.655l0.606-1.613c-23.65 51.783-64.271 92.403-114.613 115.462l-1.44 0.591zM525.653 296.391c-49.493-2.844-101.262 19.342-103.538 67.129 0 35.271 25.031 74.524 106.382 79.076h27.307c0.488 0.002 1.065 0.003 1.642 0.003 28.609 0 56.54-2.901 83.516-8.424l-2.67 0.457c-9.102-116.622-64.284-135.964-112.64-138.24z" />
<glyph unicode="&#xe976;" glyph-name="settings" d="M967.111 739.555v-113.778h-465.351c-24.509-66.148-87.062-112.44-160.427-112.44s-135.917 46.291-160.043 111.259l-0.384 1.181h-124.018v113.778h124.018c24.509 66.148 87.062 112.44 160.427 112.44s135.917-46.291 160.043-111.259l0.384-1.181zM682.667 398.222c-73.672-0.214-136.344-47.074-160.051-112.589l-0.376-1.189h-465.351v-113.778h465.351c24.509-66.148 87.062-112.44 160.427-112.44s135.917 46.291 160.043 111.259l0.384 1.181h124.018v113.778h-124.018c-24.083 66.704-86.755 113.564-160.401 113.778h-0.026z" />
</font>
</defs>
</svg>
